Ссылка на приватное зеркало нашего сайта всего за 1$. Внимание количество ограничено!!!

2 сезон

iTunes

1 сезон

1

2 сезон

2 сезон

iTunes

1 сезон

RePack

30

Новинка

ВАЖНО

ИГРА 18+

pack

RePack

MK11
pack

Забери бонус

RePack

jed

!!Акция!!

Alien_Rage

RePack

fifa19

RePack

Assassins Creed: Odyssey

RePack

NEED FOR SPEED™ PAYBACK

4 сезон

9 сезон

Бесстыжие 9 сезон

Все сериалы

все сериалы на PB.wtf

RePack

FAR CRY 5
  

Столпы Земли / The Pillars of the Earth / Сезон: 1 / Серии: 1-8 (8) (Серджо Мимика-Геззан) [2010, триллер, мелодрама, драма, BDRip 720p] MVO (SET Россия) + Original + Eng subs pb.wtf

Столпы Земли через торрент pb.wtf

Размер: 26.67 GB | Добавлен: 7 лет 2 мес. назад | Торрент скачан:81 раз
Скачать  

23-09-2013 00:17 Столпы Земли Скачать торрент  

Столпы Земли (мини-сериал) / The Pillars of the Earth

«Building the Monumental Television Event of 2010»

  • Год выпуска:2010

  • Страна:Германия, Канада
  • Жанр:триллер, драма, мелодрама, история

  • Продолжительность: ~ 50 минут
  • Перевод:Профессиональный (многоголосый, закадровый) (Set Россия)

  • Субтитры: Английские (полные)
    • Режиссер:Серджо Мимика-Геззан / Sergio Mimica-Gezzan
    • Сценарий: Кен Фоллет / Ken Follett, Джон Пилмейер / John Pielmeier
    • Продюсер: Йонас Бауэр / Jonas Bauer, Джон Райан / John Ryan, Ридли Скотт / Ridley Scott, Тони Скотт / Tony Scott, Дэвид В. Цукер / David W. Zucker

  • В ролях:Эдди Редмэйн (Jack), Хейли Этвелл (Aliena), Иэн МакШейн (Waleran Bigod), Дональд Сазерленд (Bartholomew), Руфус Сьюэлл (Tom Builder), Мэттью Макфейден (Philip), Сэм Клафлин (Richard), Дэвид Оукс (William Hamleigh), Сара Пэриш (Regan Hamleigh), Наталия Вёрнер (Ellen), Анатоль Таубман (Remigius), Джон Пилмейер (Cuthbert)

    • Описание:
      Время действия - Англия, XII век. Тяжелое, смутное время, жестокие нравы... Граница между добром и злом настолько условна, что легко сделать неверный шаг, принимая решения в масштабах целого государства. Вечная борьба за престол, постоянные войны, предательство церкви... Великолепная экранизация одноименного романа Кена Фоллета никого не оставит равнодушным!


    • Качество:BDRip 720p
    • Формат: MKV
    • Видео кодек: AVC
    • Аудио кодек:AC3
    • Видео: AVC, 1280x720 (16:9), 7200 kbps, 23,976 fps, 0,326 bpp
    • Аудио №1: русский / AC3 / 2.0 / 48 kHz / 192 kbps / 16 bit ||
    • Аудио №2: английский / AC3 / 5.1 / 48 kHz / 640 kbps / 16 bit

    1. Anarchy / Анархия
    2. Master Builder / Мастер-каменщик
    3. Redemption / Искупление
    4. Battlefield / Поле битвы
    5. Legacy / Наследство
    6. Witchcraft / Колдовство
    7. New Beginnings / Новые начинания
    8. The Work of Angels / Дело ангелов
    General
    Unique ID : 201218374059261954771965578463918410753 (0x97613FCB51E08EBC837DB98C200BCC01)
    Complete name : D:Торентыthe.pillars.of.the.earth.s01.bdrip.720.rus.eng.novafilm.tvthe.pillars.of.the.earth.s01e01e02.bdrip.720.rus.eng.novafilm.tv.mkv
    Format : Matroska
    Format version : Version 2
    File size : 6.16 GiB
    Duration : 1h 49mn
    Overall bit rate : 8 033 Kbps
    Encoded date : UTC 2011-06-14 03:04:04
    Writing application : mkvmerge v3.3.0 ('Language') built on Mar 24 2010 14:59:24
    Writing library : libebml v0.8.0 + libmatroska v0.9.0

    Video
    ID : 1
    Format : AVC
    Format/Info : Advanced Video Codec
    Format profile : High@L4.1
    Format settings, CABAC : Yes
    Format settings, ReFrames : 9 frames
    Codec ID : V_MPEG4/ISO/AVC
    Duration : 1h 49mn
    Bit rate : 7 200 Kbps
    Width : 1 280 pixels
    Height : 720 pixels
    Display aspect ratio : 16:9
    Frame rate : 23.976 fps
    Color space : YUV
    Chroma subsampling : 4:2:0
    Bit depth : 8 bits
    Scan type : Progressive
    Bits/(Pixel*Frame) : 0.326
    Stream size : 5.40 GiB (88%)
    Writing library : x264 core 112 r1834 a51816a
    Encoding settings : cabac=1 / ref=9 / deblock=1:-3:-3 / analyse=0x3:0x133 / me=tesa / subme=10 / psy=1 / psy_rd=1.00:0.00 / mixed_ref=1 / me_range=32 / chroma_me=1 / trellis=2 / 8x8dct=1 / cqm=0 / deadzone=21,11 / fast_pskip=0 / chroma_qp_offset=-2 / threads=8 / sliced_threads=0 / nr=0 / decimate=0 / interlaced=0 / constrained_intra=0 / bframes=7 / b_pyramid=2 / b_adapt=2 / b_bias=0 / direct=3 / weightb=1 / open_gop=0 / weightp=2 / keyint=250 / keyint_min=23 / scenecut=40 / intra_refresh=0 / rc=2pass / mbtree=0 / bitrate=7200 / ratetol=1.0 / qcomp=0.80 / qpmin=0 / qpmax=51 / qpstep=4 / cplxblur=20.0 / qblur=0.5 / ip_ratio=1.40 / pb_ratio=1.30 / aq=2:0.70
    Language : English
    Default : No
    Forced : No

    Audio #1
    ID : 2
    Format : AC-3
    Format/Info : Audio Coding 3
    Mode extension : CM (complete main)
    Codec ID : A_AC3
    Duration : 1h 49mn
    Bit rate mode : Constant
    Bit rate : 192 Kbps
    Channel(s) : 2 channels
    Channel positions : Front: L R
    Sampling rate : 48.0 KHz
    Bit depth : 16 bits
    Compression mode : Lossy
    Stream size : 151 MiB (2%)
    Language : Russian
    Default : Yes
    Forced : No

    Audio #2
    ID : 3
    Format : AC-3
    Format/Info : Audio Coding 3
    Mode extension : CM (complete main)
    Codec ID : A_AC3
    Duration : 1h 49mn
    Bit rate mode : Constant
    Bit rate : 640 Kbps
    Channel(s) : 6 channels
    Channel positions : Front: L C R, Side: L R, LFE
    Sampling rate : 48.0 KHz
    Bit depth : 16 bits
    Compression mode : Lossy
    Stream size : 503 MiB (8%)
    Language : English
    Default : No
    Forced : No

    Text
    ID : 4
    Format : UTF-8
    Codec ID : S_TEXT/UTF8
    Codec ID/Info : UTF-8 Plain Text
    Language : English
    Default : No
    Forced : No

    Menu
    00:00:00.000 : en:00:00:00.000
    00:01:05.065 : en:00:01:05.065
    00:11:50.501 : en:00:11:50.501
    00:20:15.172 : en:00:20:15.172
    00:28:53.649 : en:00:28:53.649
    00:38:27.764 : en:00:38:27.764
    00:47:19.295 : en:00:47:19.295
    00:56:48.947 : en:00:56:48.947
    01:04:07.177 : en:01:04:07.177
    01:13:27.236 : en:01:13:27.236
    01:22:27.151 : en:01:22:27.151
    01:28:49.115 : en:01:28:49.115
    01:35:05.783 : en:01:35:05.783
    01:40:55.841 : en:01:40:55.841
    01:47:44.958 : en:01:47:44.958
    скриншот   скриншот   скриншот   скриншот  
    © Оформление by Vetal
    pb.wtf



  • Скачать Столпы Земли через торрент http://i58.fastpic.ru/big/2013/0922/31/4683bcd4960801b02604b79f43d30631.png Скачать фильм Столпы Земли через торрент бесплантно в хорошем качестве Описание:Время действия - Англия, XII век. Тяжелое, смутное время, жестокие нравы... Граница между добром и злом настолько условна, что ... 10 10 3
    Info! Золотая раздача, скачанное не засчитывается.
    Торрент: Зарегистрирован [2013-09-23 00:17] · скачан: 81 раз
    Статус: √ проверено
    Размер: 26.67 GB
    Как cкачать? Как скачать Столпы Земли через торрент | qTorrent

    28-11-2019 20:33  

    Отключить всю рекламу на сайте

      Дорогой пользователь! Огромная просьба, поблагодарите релизера, оцените раздачу и оставьте свои комментарий, если Вы скачали Столпы Земли через торрент бесплатно! Внесите свою лепту в развитие PiratBit!
      Комментировать посты могут только пользователи прошедшие не сложную регистрацию
      Показать сообщения:    

      Столпы Земли через торрент
      Скачать бесплатно Столпы Земли
      Столпы Земли скачать торрент
      Столпы Земли смотреть онлайн
      Cкачать фильм Столпы Земли бесплатно
      Столпы Земли скачать торрент в хорошем качестве
      Столпы Земли смотреть онлайн бесплатно в хорошем качестве


      Вы не можете начинать темы
      Вы не можете отвечать на сообщения
      Вы не можете редактировать свои сообщения
      Вы не можете удалять свои сообщения
      Вы не можете голосовать в опросах
      Вы не можете прикреплять файлы к сообщениям
      Вы можете скачивать файлы