Ссылка на приватное зеркало нашего сайта всего за 1$. Внимание количество ограничено!!!

2 сезон

iTunes

1 сезон

1

2 сезон

2 сезон

iTunes

1 сезон

RePack

30

Ultimate

ВАЖНО

ИГРА 18+

pack

RePack

MK11
pack

Забери бонус

RePack

jed

!!Акция!!

Alien_Rage

RePack

fifa19

RePack

Assassins Creed: Odyssey

RePack

NEED FOR SPEED™ PAYBACK

4 сезон

9 сезон

Бесстыжие 9 сезон

Все сериалы

все сериалы на PB.wtf

RePack

FAR CRY 5
  

Хэтфилды и МакКои / Hatfields & McCoys / Сезон: 1 / Эпизод 1-3 (3)(Кевин Рейнольдс) [2012 г., драма, мелодрама, вестерн, военный, история, BDRip]MVO (Amedia), Original pb.wtf

Хэтфилды и МакКои через торрент pb.wtf

Размер: 3 GB | Добавлен: 7 лет 2 мес. назад | Торрент скачан:121 раз
Скачать  

24-09-2013 04:24 Хэтфилды и МакКои Скачать торрент  

Хэтфилды и МакКои / Hatfields & McCoys
Год выпуска: 2012
Страна: США
Жанр: драма, мелодрама, вестерн, военный, история, ,
Продолжительность: 1 ~ 01:42:33; 2 ~ 01:38:39; 3 ~ 01:28:56
Перевод: Профессиональный (многоголосый закадровый) (Amedia)

Режиссер: Кевин Рейнольдс




В ролях: Кевин Костнер (Дьявл Энс Хэтфилд), Билл Пэкстон (Рэндалл Маккой), Мэтт Барр (Джонси Хэтфилд), Том Беренджер (Джим Вэнс), Пауэрс Бут (судья Валентин "Уолл" Хэтфилд), Эндрю Ховард (Негодяй Фрэнк Филлипс), Джена Мэлоун (Нэнси Маккой), Сара Пэриш (Ливаси Хэтфилд), Мэр Уиннингхэм (Салли Маккой), Линдсей Палсифер (Розанна Маккой), Ронан Вайберт (Пэрри Клайн) и др., ,

Описание: Это реальная американская история легендарной семейной вражды, которая длилась несколько десятилетий, и почти развязала войну между Кентукки и Западной Виргинией. Хроника столкновения кланов, наполненная страстью, мужеством, местью, самопожертвованием, преступлениями и обвинениями, беспрестанно меняющими обе семьи, и места где они жили.
Сага начинается с Уильяма Эндерсона Хэтфилда и Рэндала Маккоя. Близкие друзья и товарищи, ближе к концу Гражданской Войны, они возвращаются в свои дома — Хэтфилд в Западную Виргинию, Маккой, по соседству через реку, в Кентукки — и тут растущие напряжения, недопонимания и обиды, начинают перерастать в тотальные войны между их семьями. Конфликт между кланами втянул в себя всех: друзей, соседей и множество людей, не имеющих отношения к происходящему, в результате чего два штата были поставленные перед угрозой новой гражданской войны
.


Озвучка: Amedia
Работа со звуком: BS666
Рип: xironfs

Качество: BDRip
Формат: AVI
Видео кодек: XviD
Аудио кодек: MP3
Видео: 624x352 (16:9), 23.976 fps, XviD, 1 020 Kbps
Аудио#1: Русский, 224 Kbps, 48.0 KHz, 2 ch(Amedia)
Аудио#2: Английский, 224 Kbps, 48.0 KHz, 2 ch




General
Complete name : Hatfields.and.McCoys.e01.CasStudio.TV.avi
Format : AVI
Format/Info : Audio Video Interleave
File size : 1.06 GiB
Duration : 1h 42mn
Overall bit rate : 1 482 Kbps
Writing application : VirtualDubModRus 1.5.10.2 (build 2542/release)
Writing library : VirtualDubMod build 2542/release

Video
ID : 0
Format : MPEG-4 Visual
Format profile : Advanced Simple@L5
Format settings, BVOP : Yes
Format settings, QPel : No
Format settings, GMC : No warppoints
Format settings, Matrix : Default (H.263)
Codec ID : XVID
Codec ID/Hint : XviD
Duration : 1h 42mn
Bit rate : 1 020 Kbps
Width : 624 pixels
Height : 352 pixels
Display aspect ratio : 16:9
Frame rate : 23.976 fps
Color space : YUV
Chroma subsampling : 4:2:0
Bit depth : 8 bits
Scan type : Progressive
Bits/(Pixel*Frame) : 0.194
Stream size : 748 MiB (69%)
Writing library : XviD 65

Audio #1
ID : 1
Format : MPEG Audio
Format version : Version 1
Format profile : Layer 3
Codec ID : 55
Codec ID/Hint : MP3
Duration : 1h 42mn
Bit rate mode : Constant
Bit rate : 224 Kbps
Channel(s) : 2 channels
Sampling rate : 48.0 KHz
Stream size : 164 MiB (15%)
Alignment : Aligned on interleaves
Interleave, duration : 42 ms (1.00 video frame)
Interleave, preload duration : 504 ms
Writing library : LAME3.99r
Encoding settings : -m s -V 4 -q 0 -lowpass 19.4 -b 224

Audio #2
ID : 2
Format : MPEG Audio
Format version : Version 1
Format profile : Layer 3
Codec ID : 55
Codec ID/Hint : MP3
Duration : 1h 42mn
Bit rate mode : Constant
Bit rate : 224 Kbps
Channel(s) : 2 channels
Sampling rate : 48.0 KHz
Stream size : 164 MiB (15%)
Alignment : Aligned on interleaves
Interleave, duration : 42 ms (1.00 video frame)
Interleave, preload duration : 504 ms
Writing library : LAME3.99r
Encoding settings : -m s -V 4 -q 0 -lowpass 19.4 -b 224


Хэтфилды и МакКои скачать торрент


pb.wtf



Скачать Хэтфилды и МакКои через торрент http://pic.kartinco.top/images/4/ar8vk.jpg Скачать фильм Хэтфилды и МакКои через торрент бесплантно в хорошем качестве Описание: Это реальная американская история легендарной семейной вражды, которая длилась несколько десятилетий, и почти развязала войну ... 9.9 10 9
Info! Золотая раздача, скачанное не засчитывается.
Торрент: Зарегистрирован [2013-09-24 04:24] · скачан: 121 раз
Статус: √ проверено
Размер: 3 GB
Как cкачать? Как скачать Хэтфилды и МакКои через торрент | qTorrent

28-11-2019 20:33  

Отключить всю рекламу на сайте

19-08-2014 18:38 Хэтфилды и МакКои Скачать торрент  

Спасибо за работу, доброту.pb.wtf



    Дорогой пользователь! Огромная просьба, поблагодарите релизера, оцените раздачу и оставьте свои комментарий, если Вы скачали Хэтфилды и МакКои через торрент бесплатно! Внесите свою лепту в развитие PiratBit!
    Комментировать посты могут только пользователи прошедшие не сложную регистрацию
    Показать сообщения:    

    Хэтфилды и МакКои через торрент
    Скачать бесплатно Хэтфилды и МакКои
    Хэтфилды и МакКои скачать торрент
    Хэтфилды и МакКои смотреть онлайн
    Cкачать фильм Хэтфилды и МакКои бесплатно
    Хэтфилды и МакКои скачать торрент в хорошем качестве
    Хэтфилды и МакКои смотреть онлайн бесплатно в хорошем качестве


    Вы не можете начинать темы
    Вы не можете отвечать на сообщения
    Вы не можете редактировать свои сообщения
    Вы не можете удалять свои сообщения
    Вы не можете голосовать в опросах
    Вы не можете прикреплять файлы к сообщениям
    Вы можете скачивать файлы