2 сезон

iTunes

MVO

1

2 сезон

iTunes

iTunes

1 сезон

RePack

30

Новинка

ВАЖНО

ИГРА 18+

pack

RePack

MK11
pack

Легкие деньги

RePack

jed

RePack

fifa19

RePack

RDR2

RePack

NEED FOR SPEED™ PAYBACK

4 сезон

9 сезон

Бесстыжие 9 сезон

Все сериалы

все сериалы на PB.wtf

RePack

FAR CRY 5

Anonymous, добрый вечер, мы не успеваем собрать деньги на оплату серверов за декабрь и январь, помогите нам пожалуйста в это трудное время. В качестве благодарности мы отключим Вам всю рекламу на сайте (укажите свой ник в строку Ваше имя)!

×
  
Magnet ссылка

Война миров Z / World War Z (Марк Форстер) [2013 г., Ужасы, Фантастика, Боевик, BDRip 1080p, Дубляж + Оригинал] Анаглиф (Дюбуа) pb.wtf

Война миров Z через торрент pb.wtf

Размер: 11.11 GB | Добавлен: 7 лет 3 мес. назад | Торрент скачан:190 раз
Скачать  

24-09-2013 13:06 Война миров Z Скачать торрент  

Война миров Z / World War Z
Год выпуска: 2013
Страна: США
Жанр: Ужасы, Фантастика, Боевик,
Продолжительность: 01:56:04
Перевод: Дубляж |Paramount Pictures| + Оригинальный

Режиссер: Марк Форстер
Продюссер: Йен Брайс, Деде Гарднер, Джереми Клейнер
Сценарий: Мэттью Майкл Карнахан, Дрю Годдард, Дэймон Линделоф

Бюджет: $190 000 000
Премьера в мире: 2 июня 2013



В ролях: Брэд Питт, Мирей Инос, Джеймс Бэдж Дэйл, Мэттью Фокс, Даниэлла Кертеш, Луди Бокен, Фана Мокоэна, Дэвид Морc, Элайес Габел, Питер Капальди,

Описание: Сотрудник ООН Гари Лейн наперегонки со временем пытается остановить заражение, способное полностью истребить человечество.


Формат 3D: Анаглиф (Дюбуа)



Качество: BDRip 1080p
Формат: MKV
Видео кодек: H.264
Аудио кодек: AC3
Видео: 1920 х 1080 / 23,976 fps, (16:9) / 12,4 Мбит/сек, (0.250 bit/pixel)
Аудио#1: AC3, 384 kb/s (6 ch), 48.0 KHz (Russian)
Аудио#2: AC3, 640 kb/s (6 ch), 48.0 KHz (English)



скриншот   скриншот   скриншот   скриншот   скриншот   скриншот  
Общее
Уникальный идентификатор : 214060372723234668517329983597448851105 (0xA10A87365FD6AB80BAFA42CCBC18EEA1)
Полное имя : D: World.War.Z.3D.2013.1080p.BluRay.(Anaglyph_Dubois).mkv
Формат : Matroska
Версия формата : Version 4 / Version 2
Размер файла : 11,1 Гбайт
Продолжительность : 1 ч. 56 м.
Общий поток : 13,7 Мбит/сек
Название фильма : Война миров Z / World.War.Z.3D.2013.1080p.BluRay.(Anaglyph_Dubois)
Дата кодирования : UTC 2013-09-21 06:30:25
Программа кодирования : mkvmerge v6.2.0 ('Promised Land') built on Apr 28 2013 12:22:01
Библиотека кодирования : libebml v1.3.0 + libmatroska v1.4.0

Видео
Идентификатор : 1
Формат : AVC
Формат/Информация : Advanced Video Codec
Профиль формата : Baseline@L4.0
Параметр CABAC формата : Нет
Параметр ReFrames формата : 1 кадр
Идентификатор кодека : V_MPEG4/ISO/AVC
Продолжительность : 1 ч. 56 м.
Битрейт : 12,4 Мбит/сек
Ширина : 1920 пикселей
Высота : 1080 пикселей
Соотношение сторон : 16:9
Режим частоты кадров : Постоянный
Частота кадров : 23,976 кадра/сек
Цветовое пространство : YUV
Субдискретизация насыщенности : 4:2:0
Битовая глубина : 8 бит
Тип развёртки : Прогрессивная
Бит/(Пиксели*Кадры) : 0.250
Размер потока : 10,1 Гбайт (91%)
Заголовок : World War Z 3D.2013.1080p.BluRay.(Anaglyph_Dubois)
Библиотека кодирования : x264 core 125 r2200bm 999b753
Настройки программы : cabac=0 / ref=1 / deblock=0:0:0 / analyse=0:0 / me=dia / subme=0 / psy=1 / psy_rd=1.00:0.00 / mixed_ref=0 / me_range=16 / chroma_me=1 / trellis=0 / 8x8dct=0 / cqm=0 / deadzone=21,11 / fast_pskip=1 / chroma_qp_offset=0 / threads=3 / lookahead_threads=1 / sliced_threads=0 / nr=0 / decimate=1 / interlaced=0 / bluray_compat=0 / constrained_intra=0 / bframes=0 / weightp=0 / keyint=250 / keyint_min=23 / scenecut=0 / intra_refresh=0 / rc=crf / mbtree=0 / crf=18.2 / qcomp=0.60 / qpmin=0 / qpmax=69 / qpstep=4 / ip_ratio=1.40 / aq=0
Язык : English
Default : Нет
Forced : Нет

Аудио #1
Идентификатор : 2
Формат : AC-3
Формат/Информация : Audio Coding 3
Расширение режима : CM (complete main)
Параметр Endianness формата : Big
Идентификатор кодека : A_AC3
Продолжительность : 1 ч. 56 м.
Вид битрейта : Постоянный
Битрейт : 384 Кбит/сек
Каналы : 6 каналов
Расположение каналов : Front: L C R, Side: L R, LFE
Частота : 48,0 КГц
Битовая глубина : 16 бит
Метод сжатия : С потерями
Задержка видео : -125 мс.
Размер потока : 319 Мбайт (3%)
Заголовок : Dub
Язык : Russian
Default : Да
Forced : Да

Аудио #2
Идентификатор : 3
Формат : AC-3
Формат/Информация : Audio Coding 3
Расширение режима : CM (complete main)
Параметр Endianness формата : Big
Идентификатор кодека : A_AC3
Продолжительность : 1 ч. 56 м.
Вид битрейта : Постоянный
Битрейт : 640 Кбит/сек
Каналы : 6 каналов
Расположение каналов : Front: L C R, Side: L R, LFE
Частота : 48,0 КГц
Битовая глубина : 16 бит
Метод сжатия : С потерями
Задержка видео : -125 мс.
Размер потока : 531 Мбайт (5%)
Заголовок : Original
Язык : English
Default : Нет
Forced : Нет

pb.wtf



Скачать Война миров Z через торрент http://i60.fastpic.ru/big/2013/0906/72/b85ffccdcf072424ccc3ff1cedd24b72.gif Скачать фильм Война миров Z через торрент бесплантно в хорошем качестве Описание: Сотрудник ООН Гари Лейн наперегонки со временем пытается остановить заражение, способное полностью истребить человечество.Формат ... 9.2 10 13
Info! Золотая раздача, скачанное не засчитывается.
Торрент: Зарегистрирован [2013-09-24 13:06] · скачан: 190 раз
Статус: √ проверено
Размер: 11.11 GB
Как cкачать? Как скачать Война миров Z через торрент | UTorrent

% Раздел Тема Автор DL S | L
Фильмы (Blu-ray, BD-Remux, HDDVD) [ 41.4 GB ] Война миров Z / World War Z [2013 BD-Remux ] _KaisiK_ Скачать
1 | 0
Фильмы (BDRip, HDrip-AVC) (48-60 fps) [ 3.64 GB ] Война миров Z / World War Z [2013 BDRip-AVC 60fps Unrated Cut Dub] от R.G. HD-Films Tiberiumsun69 Скачать
9 | 0
Фильмы (HD 720p, 1080p) (48-60 fps) [ 10.21 GB ] Война миров Z / World War Z [2013 BDRip 1080p / 60 FPS Unrated Cut] Tiberiumsun69 Скачать
1 | 0
Фильмы 2013 [DVDrip, WEB-DLRip, HDrip] [ 1.46 GB ] Война миров Z / World War Z [2013 BDRip] - [] Twi7ter Скачать
1 | 0
Фильмы 2013 [DVDrip, WEB-DLRip, HDrip] [ 2.18 GB ] Война миров Z / World War Z [2013 BDRip] - [] Twi7ter Скачать
2 | 0
Фильмы [HD 720p, 1080p] (Хороший звук DUB, MVO) [ 6.04 GB ] Война миров Z / World War Z [2013 BDRip 720p DUB] [Theatrical Cut] лисяра Скачать
1 | 0
Фильмы [HD 720p, 1080p] (Хороший звук DUB, MVO) [ 13.16 GB ] Война миров Z / World War Z [2013 BDRip 1080p DUB ] от R.G. HD-Films Seedtank Скачать
1 | 0


Последний раз редактировалось: slaventi-69 (2013-09-24 14:35), всего редактировалось 1 раз

28-11-2019 20:33  

Отключить всю рекламу на сайте

24-09-2013 13:54 Война миров Z Скачать торрент  

Надо глянуть pb.wtf



24-09-2013 14:03 Война миров Z Скачать торрент  

расширенная версия чем отличается от обычной?
Если нет ЗД можно посмотреть без 3Д??
pb.wtf



24-09-2013 14:46 Война миров Z Скачать торрент  

mastre писал(а):

расширенная версия чем отличается от обычной?
Если нет ЗД можно посмотреть без 3Д??

Простите ощибочка. Версия не расширенная, исправил. Очень извиняюсь. Тут: 01:56:04
В расширенной: 02:03:03
Этот релиз 3D. смотреть в Анаглифных очках.pb.wtf



    Дорогой пользователь! Огромная просьба, поблагодарите релизера, оцените раздачу и оставьте свои комментарий, если Вы скачали Война миров Z через торрент бесплатно! Внесите свою лепту в развитие PiratBit!
    Комментировать посты могут только пользователи прошедшие не сложную регистрацию
    Показать сообщения:    

    Война миров Z через торрент
    Скачать бесплатно Война миров Z
    Война миров Z скачать торрент
    Война миров Z смотреть онлайн
    Cкачать фильм Война миров Z бесплатно
    Война миров Z скачать торрент в хорошем качестве
    Война миров Z смотреть онлайн бесплатно в хорошем качестве


    Вы не можете начинать темы
    Вы не можете отвечать на сообщения
    Вы не можете редактировать свои сообщения
    Вы не можете удалять свои сообщения
    Вы не можете голосовать в опросах
    Вы не можете прикреплять файлы к сообщениям
    Вы можете скачивать файлы