MEGA SALE -50% FORZA HORIZON 4 ULTIMATE+ВСЕ DLC+ОНЛАЙН всего за 599р. 299 руб. (супер цена). Внимание количество ограничено!!!

iTunes

1+1

iTunes

мы

iTunes

1

iTunes

Чернобыль

iTunes

Ральф против интернета

Лицензия

ПШазам

Лицензия

Игра престолов

Лицензия

30
pack

ВАЖНО

!!Акция!!

Alien_RageХит недели

RePack

Resident Evil 21

ИГРА 18+

pack

RePack

Metro:Exodus

!!Акция!!

Alien_Rage

RePack

fifa19

RePack

Assassins Creed: Odyssey

RePack

NEED FOR SPEED™ PAYBACK

3 сезон

9 сезон

Бесстыжие 9 сезон

Все сериалы

все сериалы на PB.wtf

RePack

FAR CRY 5
Ребята, катастрофически не хватает 7730р. для оплаты серверов за АВГУСТ (всвязи с блокировками трафик упал в 3 раза), 1-2р., выручайте.
  

Молот богов / Hammer of the Gods (Фэррен Блэкберн) [2013 г., боевик, драма, BDRip 1080p]MVO pb.wtf

Молот богов через торрент pb.wtf

Размер: 6.92 GB | Добавлен: 5 лет 11 мес. назад | Торрент скачан:283 раза
Скачать  

25-09-2013 04:40 Молот богов Скачать торрент  

Молот богов / Hammer of the Gods
Год выпуска: 2013
Страна: Великобритания
Жанр: боевик, драма,
Продолжительность: 01:38:49
Перевод: Профессиональный (многоголосый закадровый)

Режиссер: Фэррен Блэкберн




В ролях: Чарли Бьюли, Клайв Стэнден, Джеймс Космо, Эллиот Кауэн, Глайнис Барбер, Айван Кэй, Майкл Джибсон, Гай Флэнеган, Тео Барклем-Биггз, Александра Доулинг,

Описание: Страстный молодой человек превращается в жестокого воина, во время своих путешествий в поисках давно потерянного брата.

Качество: BDRip 1080p
Формат: MKV
Видео кодек: AVC
Аудио кодек: AC3
Видео: 1920x800 (2.40:1), 23.976 fps, 9 574 Kbps
Аудио#1: 448 Kbps, 48.0 KHz, 6 ch




General
Complete name : Молот богов - Hammer of the Gods [HD].mkv
Format : Matroska
File size : 6.92 GiB
Duration : 1h 38mn
Overall bit rate : 10.0 Mbps
Encoded date : UTC 2013-08-06 00:37:04
Writing application : mkvmerge v6.3.0 ('You can't stop me!') built on Jun 28 2013 20:09:41
Writing library : libebml v1.3.0 + libmatroska v1.4.0

Video
ID : 1
Format : AVC
Format/Info : Advanced Video Codec
Format profile : High@L4.1
Format settings, CABAC : Yes
Format settings, ReFrames : 5 frames
Format settings, GOP : M=4, N=16
Muxing mode : Container profile=Unknown@4.1
Codec ID : V_MPEG4/ISO/AVC
Duration : 1h 38mn
Bit rate : 9 574 Kbps
Width : 1 920 pixels
Height : 800 pixels
Display aspect ratio : 2.40:1
Frame rate : 23.976 fps
Color space : YUV
Chroma subsampling : 4:2:0
Bit depth : 8 bits
Scan type : Progressive
Bits/(Pixel*Frame) : 0.260
Stream size : 6.47 GiB (94%)
Writing library : x264 core 135 r2345 f0c1c53
Encoding settings : cabac=1 / ref=5 / deblock=1:-3:-3 / analyse=0x3:0x113 / me=umh / subme=8 / psy=1 / psy_rd=1.00:0.00 / mixed_ref=1 / me_range=16 / chroma_me=1 / trellis=1 / 8x8dct=1 / cqm=0 / deadzone=21,11 / fast_pskip=1 / chroma_qp_offset=-2 / threads=18 / lookahead_threads=3 / sliced_threads=0 / nr=0 / decimate=1 / interlaced=0 / bluray_compat=0 / constrained_intra=0 / bframes=3 / b_pyramid=2 / b_adapt=2 / b_bias=0 / direct=3 / weightb=1 / open_gop=0 / weightp=2 / keyint=240 / keyint_min=24 / scenecut=40 / intra_refresh=0 / rc_lookahead=50 / rc=2pass / mbtree=1 / bitrate=9574 / ratetol=1.0 / qcomp=0.60 / qpmin=0 / qpmax=69 / qpstep=4 / cplxblur=20.0 / qblur=0.5 / ip_ratio=1.40 / aq=1:1.00

Audio
ID : 2
Format : AC-3
Format/Info : Audio Coding 3
Mode extension : CM (complete main)
Codec ID : A_AC3
Duration : 1h 38mn
Bit rate mode : Constant
Bit rate : 448 Kbps
Channel(s) : 6 channels
Channel positions : Front: L C R, Side: L R, LFE
Sampling rate : 48.0 KHz
Bit depth : 16 bits
Stream size : 317 MiB (4%)
Language : Russian


Молот богов скачать торрент


pb.wtf



Скачать Молот богов через торрент http://pic.kartinco.top/images/4/5vd34.jpg Скачать фильм Молот богов через торрент бесплантно в хорошем качестве Описание: Страстный молодой человек превращается в жестокого воина, во время своих путешествий в поисках давно потерянного ... 9.4 10 14
Info! Золотая раздача, скачанное не засчитывается.
Торрент: Зарегистрирован [2013-09-25 04:40] · скачан: 283 раз
Статус: # сомнительно
Размер: 6.92 GB
Как cкачать? Как скачать Молот богов через торрент | qTorrent


>> Регистрируемся здесь <<






Отзывы и комментарии о схеме читаем и пишем здесь: ---> Отзывы и комментарии о схеме

Новые благодарочки в телеграм довольных пользователей:
скриншот   скриншот   скриншот   скриншот   скриншот

25-09-2013 07:47 Молот богов Скачать торрент  

Assasinca
Для проверки перевода, выложите Сэмпл.


Как сделать сэмпл видео pb.wtf



    Дорогой пользователь! Огромная просьба, поблагодарите релизера, оцените раздачу и оставьте свои комментарий, если Вы скачали Молот богов через торрент бесплатно! Внесите свою лепту в развитие PiratBit!
    Комментировать посты могут только пользователи прошедшие не сложную регистрацию
    Показать сообщения:    

    Молот богов через торрент
    Скачать бесплатно Молот богов
    Молот богов скачать торрент
    Молот богов смотреть онлайн
    Cкачать фильм Молот богов бесплатно
    Молот богов скачать торрент в хорошем качестве
    Молот богов смотреть онлайн бесплатно в хорошем качестве


    Вы не можете начинать темы
    Вы не можете отвечать на сообщения
    Вы не можете редактировать свои сообщения
    Вы не можете удалять свои сообщения
    Вы не можете голосовать в опросах
    Вы не можете прикреплять файлы к сообщениям
    Вы можете скачивать файлы