новый адрес пиратбит piratbit
MEGA NEWS Получи личный уникальный адрес сайта и защити себя от блокировок. Внимание количество ограничено!!!

iTunes

1+1

iTunes

мы

iTunes

1

iTunes

Чернобыль

iTunes

Ральф против интернета

Лицензия

ПШазам

Лицензия

Игра престолов

Лицензия

30
pack

ВАЖНО

!!Акция!!

Alien_RageХит недели

RePack

Resident Evil 21

ИГРА 18+

pack

RePack

Metro:Exodus

!!Акция!!

Alien_Rage

RePack

fifa19

RePack

Assassins Creed: Odyssey

RePack

NEED FOR SPEED™ PAYBACK

3 сезон

9 сезон

Бесстыжие 9 сезон

Все сериалы

все сериалы на PB.wtf

RePack

FAR CRY 5
Ребята, катастрофически не хватает 1900р. для оплаты серверов за АВГУСТ (всвязи с блокировками трафик упал в 3 раза), 1-2р., выручайте.
  

Нужные вещи / Needful Things (Фрэйзер С. Хестон / Fraser C. Heston) [1993 г., ужасы, фэнтези, триллер, драма, криминал, BDRip, Профессиональный (многоголосый закадровый)+Оригинальный] pb.wtf

Нужные вещи через торрент pb.wtf

Размер: 2.51 GB | Добавлен: 6 лет назад | Торрент скачан:43 раза
Скачать  

25-09-2013 05:40 Нужные вещи Скачать торрент  

Нужные вещи / Needful ThingsГод выпуска: 1993
Страна: США
Жанр: ужасы, фэнтези, триллер, драма, криминал

Продолжительность: 02:00:44
Перевод: Профессиональный (двухголосый)
Профессиональный (многоголосый закадровый)
Авторский (Гаврилов Андрей)
Оригинальный
Субтитры: Нет

Режиссер: Фрейзер Кларк Хестон / Fraser Clarke Heston

Сценарий: У. Д. Рихтер, Стивен Кинг

Макс фон Сюдов (Leland Gaunt), Эд Харрис (Sheriff Alan Pangborn), Бонни Беделиа (Polly Chalmers), Аманда Пламмер (Nettie Cobb), Дж.Т. Уолш (Danforth Keeton III), Рэй МакКиннон (Deputy Norris Ridgewick), Дункан Фрайзер (Hugh Priest), Вэлри Бромфилд (Wilma Jerzyck), Шейн Майер (Brian Rusk), Уильям Морган Шеппард (Father Meehan), Дон С. Дэвис (Reverend Rose), Кэмпбелл Лэйн (Frank Jewett)


В тихом городке Касл Рок открывается необычайный магазин «Нужные вещи», где можно за полцены купить все, что душе угодно.
За вторую половину цены хозяин требует, чтобы покупатель устроил какую-нибудь пакость ближнему своему. В результате городок превращается в преисподнюю. Убийства, драки, взрывы, сведения счетов - сам дьявол манипулирует здешними обывателями.
Если бы не шериф - единственный человек в Касл Рок, который ничего не захотел купить в этом проклятом магазине, все население городка переселилось бы прямо в ад. Но шериф оказывается человеком, которому от дьявола ничего не нужно.

Рейтинг
kinopoisk.ru: 6.719 (1901)
imdb.com: 6.00 (11 846)
MPAA: R - Лицам до 17 лет обязательно присутствие взрослого

Качество: BDRip
Формат: AVI
Видео кодек: XviD
Аудио кодек: AC3
Видео: 720x400 (1.80:1), 24.00 fps, XviD build 65, ~2006 kb/s, 0.29 bit/pixel
Аудио#1: 48 KHz, AC3 Dolby Digital (6 ch), 384 kb/s |MVO - Twister|
Аудио#2: 48 KHz, AC3 Dolby Digital (2 ch), 192 kb/s |Original|
Аудио#3: 48 KHz, AC3 Dolby Digital (2 ch), 192 kb/s |DVO - Inis| [Отдельно]
Аудио#4: 48 KHz, AC3 Dolby Digital (2 ch), 192 kb/s |AVO - A. Gavrilov (VHS)|[Отдельно]



Общее
Кол-во : 284
Кол-во потоков такого типа : 1
Тип потока : General
Тип потока : Общее
Идентификатор типа потока : 0
Inform : AC-3: 166 Мбайт, 2 ч. 0 м.
Кол-во аудиопотоков : 1
Audio_Format_List : AC-3
Audio_Format_WithHint_List : AC-3
Аудиокодеки : AC3
Полное имя : H:ТОРРЕНТЫВещиВещи.AC3.Xvid.BDRip_MRA_DVO.INIS.ac3
Имя папки : H:ТОРРЕНТЫВещи
Имя файла : Вещи.AC3.Xvid.BDRip_MRA_DVO.INIS
Расширение : ac3
Формат : AC-3
Формат : AC-3
Формат/Информация : Audio Coding 3
Формат/Используется в : ac3
Коммерческое название : AC-3
Кодек : AC-3
Кодек : AC-3
Кодек/Информация : Audio Coding 3
Кодек/Используется в : ac3
Размер файла : 173865216
Размер файла : 166 Мбайт
Размер файла : 166 Мбайт
Размер файла : 166 Мбайт
Размер файла : 166 Мбайт
Размер файла : 165,8 Мбайт
Продолжительность : 7244384
Продолжительность : 2 ч. 0 м.
Продолжительность : 2 ч. 0 м. 44 с. 384 мс.
Продолжительность : 2 ч. 0 м.
Продолжительность : 02:00:44.384
Режим общего битрейта : CBR
Режим общего битрейта : Постоянный
Общий поток : 192000
Общий поток : 192 Кбит/сек
Размер потока : 0
Размер потока : 0,00 байт (0%)
Размер потока : Byte0
Размер потока : 0,0 байт
Размер потока : 0,00 байт
Размер потока : 0,000 байт
Размер потока : 0,00 байт (0%)
Пропорции потока : 0.00000
Дата файла : UTC 2013-09-25 04:41:24.575
Дата файла (местная) : 2013-09-25 11:41:24.575
Дата изменения файла : UTC 2013-09-25 04:53:39.567
Дата изменения файла (местная) : 2013-09-25 11:53:39.567

Аудио
Кол-во : 254
Кол-во потоков такого типа : 1
Тип потока : Audio
Тип потока : Аудио
Идентификатор типа потока : 0
Inform : 192 Кбит/сек, 48,0 КГц, 16 бит, 2 канала, AC-3
Формат : AC-3
Формат/Информация : Audio Coding 3
Коммерческое название : AC-3
Расширение режима : CM (complete main)
Параметр Endianness формата : Big
Кодек : AC3
Кодек : AC3
Продолжительность : 7244384
Продолжительность : 2 ч. 0 м.
Продолжительность : 2 ч. 0 м. 44 с. 384 мс.
Продолжительность : 2 ч. 0 м.
Продолжительность : 02:00:44.384
Вид битрейта : CBR
Вид битрейта : Постоянный
Битрейт : 192000
Битрейт : 192 Кбит/сек
Каналы : 2
Каналы : 2 канала
Расположение каналов : Front: L R
Расположение каналов : 2/0/0
Частота : 48000
Частота : 48,0 КГц
Количество образцов : 347730432
Счётчик кадров : 226387
Разрешение : 16
Разрешение : 16 бит
Битовая глубина : 16
Битовая глубина : 16 бит
Метод сжатия : Lossy
Метод сжатия : С потерями
Размер потока : 173865216
Размер потока : 166 Мбайт (100%)
Размер потока : 166 Мбайт
Размер потока : 166 Мбайт
Размер потока : 166 Мбайт
Размер потока : 165,8 Мбайт
Размер потока : 166 Мбайт (100%)
Пропорции потока : 1.00000
bsid : 8
dialnorm : -31
dialnorm/String : -31 dB
compr : -0.28
compr/String : -0.28 dB
dynrng : -8.70
dynrng/String : -8.70 dB
dsurmod : 0
acmod : 2
lfeon : 0
dialnorm_Average : -31
dialnorm_Average/String : -31 dB
dialnorm_Minimum : -31
dialnorm_Minimum/String : -31 dB
dialnorm_Maximum : -31
dialnorm_Maximum/String : -31 dB
dialnorm_Count : 32
compr_Average : 0.51
compr_Average/String : 0.51 dB
compr_Minimum : -0.28
compr_Minimum/String : -0.28 dB
compr_Maximum : 1.02
compr_Maximum/String : 1.02 dB
compr_Count : 32
dynrng_Average : -8.70
dynrng_Average/String : -8.70 dB
dynrng_Minimum : -8.70
dynrng_Minimum/String : -8.70 dB
dynrng_Maximum : -8.70
dynrng_Maximum/String : -8.70 dB
dynrng_Count : 32

Общее
Кол-во : 284
Кол-во потоков такого типа : 1
Тип потока : General
Тип потока : Общее
Идентификатор типа потока : 0
Кол-во видеопотоков : 1
Кол-во аудиопотоков : 2
Video_Format_List : MPEG-4 Visual
Video_Format_WithHint_List : MPEG-4 Visual (XviD)
Видеокодеки : XviD
Audio_Format_List : AC-3 / AC-3
Audio_Format_WithHint_List : AC-3 / AC-3
Аудиокодеки : AC3 / AC3
Полное имя : H:ТОРРЕНТЫВещиВещи.avi
Имя папки : H:ТОРРЕНТЫВещи
Имя файла : Вещи
Расширение : avi
Формат : AVI
Формат : AVI
Формат/Информация : Audio Video Interleave
Формат/Используется в : avi
Коммерческое название : AVI
Профиль формата : OpenDML
Интернет-тип носителя : video/vnd.avi
Чередующаяся : Yes
Кодек : AVI
Кодек : AVI
Кодек/Информация : Audio Video Interleave
Кодек/Используется в : avi
Размер файла : 2344394752
Размер файла : 2,18 Гбайт
Размер файла : 2 Гбайт
Размер файла : 2,2 Гбайт
Размер файла : 2,18 Гбайт
Размер файла : 2,183 Гбайт
Продолжительность : 7244417
Продолжительность : 2 ч. 0 м.
Продолжительность : 2 ч. 0 м. 44 с. 417 мс.
Продолжительность : 2 ч. 0 м.
Продолжительность : 02:00:44.417
Общий поток : 2588912
Общий поток : 2589 Кбит/сек
Размер потока : 16174437
Размер потока : 15,4 Мбайт (1%)
Размер потока : 15 Мбайт
Размер потока : 15 Мбайт
Размер потока : 15,4 Мбайт
Размер потока : 15,43 Мбайт
Размер потока : 15,4 Мбайт (1%)
Пропорции потока : 0.00690
Заголовок : Нужные вещи / Needful Things (1993) BDRip
Название фильма : Нужные вещи / Needful Things (1993) BDRip
Режиссёр : MuRzA
Дата файла : UTC 2013-09-25 04:40:41.747
Дата файла (местная) : 2013-09-25 11:40:41.747
Дата изменения файла : UTC 2013-09-25 04:53:39.569
Дата изменения файла (местная) : 2013-09-25 11:53:39.569
Программа кодирования : VirtualDubModRus 1.5.10.2 (build 2542/release)
Библиотека кодирования : VirtualDubMod build 2542/release
Библиотека кодирования : VirtualDubMod build 2542/release
Формат оригинала/Имя : Криминал, Триллер, Ужасы
Правообладатель : http://bestfolders.ws/
Примечание : 2013.01.17 (BDRemux 1080p)

Видео
Кол-во : 263
Кол-во потоков такого типа : 1
Тип потока : Video
Тип потока : Видео
Идентификатор типа потока : 0
StreamOrder : 0
Идентификатор : 0
Идентификатор : 0
Формат : MPEG-4 Visual
Коммерческое название : MPEG-4 Visual
Профиль формата : Advanced Simple@L5
Настройки формата : BVOP1 / Custom Matrix
Параметр BVOP формата : 1
Параметр BVOP формата : 1
Параметр QPel формата : No
Параметр QPel формата : Нет
Параметр GMC формата : 0
Параметр GMC формата : Без точки перехода
Параметр матрицы формата : Custom
Параметр матрицы формата : Выборочная
Format_Settings_Matrix_Data : 080A0A0A0A0A0A0A0A0A0B0A0B0A0B0B0B0B0B0B0B0D0C0D0D0D0C0D0F0E0E0F0F0E0E0F10101113111010121316161312171A1C1A171D22221D292C29373748 / 0F0F0F0F0F0F0F0F0F0F100F100F101110111110111312131313121316141416161414161717191C1917171B1D20201D1B21262926212B32322B3C423C51516A
Интернет-тип носителя : video/MP4V-ES
Идентификатор кодека : XVID
Идентификатор кодека/Подсказка : XviD
Идентификатор кодека/Ссылка : http://mediaarea.net/XVID
Кодек : XVID
Кодек : XviD
Кодек/Семейство : MPEG-4V
Кодек/Информация : XviD project
Кодек/Ссылка : http://www.xvid.org/Downloads.15.0.html
Кодек/CC : XVID
Профиль кодека : Advanced Simple@L5
Настройки кодека : BVOP / Custom Matrix
Параметр пакетного потока данных кодека : No
Параметр BVOP кодека : Yes
Параметр QPel кодека : No
Параметр GMC кодека : 0
Параметр GMC кодека : Без точки перехода
Параметр матрицы кодека : Custom
Продолжительность : 7244417
Продолжительность : 2 ч. 0 м.
Продолжительность : 2 ч. 0 м. 44 с. 417 мс.
Продолжительность : 2 ч. 0 м.
Продолжительность : 02:00:44.417
Битрейт : 1995151
Битрейт : 1995 Кбит/сек
Ширина : 720
Ширина : 720 пикселей
Высота : 400
Высота : 400 пикселей
Пропорции пикселя : 1.000
Соотношение сторон : 1.800
Соотношение сторон : 16:9
Частота кадров : 24.000
Частота кадров : 24,000 кадра/сек
Счётчик кадров : 173866
Разрешение : 8
Разрешение : 8 бит
Колориметрия : 4:2:0
Цветовое пространство : YUV
Субдискретизация насыщенности : 4:2:0
Битовая глубина : 8
Битовая глубина : 8 бит
Тип развёртки : Progressive
Тип развёртки : Прогрессивная
Переплетение : PPF
Переплетение : Прогрессивная
Метод сжатия : Lossy
Метод сжатия : С потерями
Бит/(Пиксели*Кадры) : 0.289
Задержка : 0
Задержка : 00:00:00.000
Размер потока : 1806712971
Размер потока : 1,68 Гбайт (77%)
Размер потока : 2 Гбайт
Размер потока : 1,7 Гбайт
Размер потока : 1,68 Гбайт
Размер потока : 1,683 Гбайт
Размер потока : 1,68 Гбайт (77%)
Пропорции потока : 0.77065
Библиотека кодирования : XviD0065
Библиотека кодирования : XviD 65
Библиотека кодирования/Имя : XviD
Библиотека кодирования/Version : 65

Аудио #1
Кол-во : 248
Кол-во потоков такого типа : 2
Тип потока : Audio
Тип потока : Аудио
Идентификатор типа потока : 0
Позиция идентификатора типа потока : 1
StreamOrder : 1
Идентификатор : 1
Идентификатор : 1
Формат : AC-3
Формат/Информация : Audio Coding 3
Коммерческое название : AC-3
Расширение режима : CM (complete main)
Параметр Endianness формата : Big
Идентификатор кодека : 2000
Кодек : AC3
Кодек : AC3
Кодек/Семейство : AC3
Кодек/Информация : Dolby AC3
Кодек/CC : 2000
Продолжительность : 7242528
Продолжительность : 2 ч. 0 м.
Продолжительность : 2 ч. 0 м. 42 с. 528 мс.
Продолжительность : 2 ч. 0 м.
Продолжительность : 02:00:42.528
Вид битрейта : CBR
Вид битрейта : Постоянный
Битрейт : 384000
Битрейт : 384 Кбит/сек
Каналы : 6
Каналы : 6 каналов
Расположение каналов : Front: L C R, Side: L R, LFE
Расположение каналов : 3/2/0.1
Частота : 48000
Частота : 48,0 КГц
Количество образцов : 347641344
Разрешение : 16
Разрешение : 16 бит
Битовая глубина : 16
Битовая глубина : 16 бит
Метод сжатия : Lossy
Метод сжатия : С потерями
Задержка : 0
Задержка : 00:00:00.000
Задержка в оригинале : Stream
Задержка в оригинале : 'Сырой' поток
Задержка видео : 0
Задержка видео : 0
Размер потока : 347641344
Размер потока : 332 Мбайт (15%)
Размер потока : 332 Мбайт
Размер потока : 332 Мбайт
Размер потока : 332 Мбайт
Размер потока : 331,5 Мбайт
Размер потока : 332 Мбайт (15%)
Пропорции потока : 0.14829
Выравнивание : Split
Выравнивание : Разделение по промежуткам
Продолжительность промежутка : 1.00
Продолжительность промежутка : 42
Продолжительность промежутка : 42 мс. (1,00 видеокадр)
Время предзагрузки промежутка : 500
Время предзагрузки промежутка : 500 мс.
bsid : 8
dialnorm : -31
dialnorm/String : -31 dB
acmod : 7
lfeon : 1
dialnorm_Average : -31
dialnorm_Average/String : -31 dB
dialnorm_Minimum : -31
dialnorm_Minimum/String : -31 dB
dialnorm_Maximum : -31
dialnorm_Maximum/String : -31 dB
dialnorm_Count : 404
compr_Average : -0.36
compr_Average/String : -0.36 dB
compr_Minimum : -2.14
compr_Minimum/String : -2.14 dB
compr_Maximum : -0.28
compr_Maximum/String : -0.28 dB
compr_Count : 366
dynrng_Average : -1.31
dynrng_Average/String : -1.31 dB
dynrng_Minimum : -1.48
dynrng_Minimum/String : -1.48 dB
dynrng_Maximum : 0.00
dynrng_Maximum/String : 0.00 dB
dynrng_Count : 404

Аудио #2
Кол-во : 244
Кол-во потоков такого типа : 2
Тип потока : Audio
Тип потока : Аудио
Идентификатор типа потока : 1
Позиция идентификатора типа потока : 2
StreamOrder : 2
Идентификатор : 2
Идентификатор : 2
Формат : AC-3
Формат/Информация : Audio Coding 3
Коммерческое название : AC-3
Расширение режима : CM (complete main)
Параметр Endianness формата : Big
Идентификатор кодека : 2000
Кодек : AC3
Кодек : AC3
Кодек/Семейство : AC3
Кодек/Информация : Dolby AC3
Кодек/CC : 2000
Продолжительность : 7244417
Продолжительность : 2 ч. 0 м.
Продолжительность : 2 ч. 0 м. 44 с. 417 мс.
Продолжительность : 2 ч. 0 м.
Продолжительность : 02:00:44.417
Вид битрейта : CBR
Вид битрейта : Постоянный
Битрейт : 192000
Битрейт : 192 Кбит/сек
Каналы : 2
Каналы : 2 канала
Расположение каналов : Front: L R
Расположение каналов : 2/0/0
Частота : 48000
Частота : 48,0 КГц
Количество образцов : 347732016
Разрешение : 16
Разрешение : 16 бит
Битовая глубина : 16
Битовая глубина : 16 бит
Метод сжатия : Lossy
Метод сжатия : С потерями
Задержка : 0
Задержка : 00:00:00.000
Задержка в оригинале : Stream
Задержка в оригинале : 'Сырой' поток
Задержка видео : 0
Задержка видео : 0
Размер потока : 173866000
Размер потока : 166 Мбайт (7%)
Размер потока : 166 Мбайт
Размер потока : 166 Мбайт
Размер потока : 166 Мбайт
Размер потока : 165,8 Мбайт
Размер потока : 166 Мбайт (7%)
Пропорции потока : 0.07416
Выравнивание : Split
Выравнивание : Разделение по промежуткам
Продолжительность промежутка : 1.00
Продолжительность промежутка : 42
Продолжительность промежутка : 42 мс. (1,00 видеокадр)
Время предзагрузки промежутка : 500
Время предзагрузки промежутка : 500 мс.
bsid : 8
dialnorm : -31
dialnorm/String : -31 dB
dynrng : 5.88
dynrng/String : 5.88 dB
dsurmod : 0
acmod : 2
lfeon : 0
dialnorm_Average : -31
dialnorm_Average/String : -31 dB
dialnorm_Minimum : -31
dialnorm_Minimum/String : -31 dB
dialnorm_Maximum : -31
dialnorm_Maximum/String : -31 dB
dialnorm_Count : 404
dynrng_Average : 2.54
dynrng_Average/String : 2.54 dB
dynrng_Minimum : -7.18
dynrng_Minimum/String : -7.18 dB
dynrng_Maximum : 5.88
dynrng_Maximum/String : 5.88 dB
dynrng_Count : 404

Общее
Кол-во : 284
Кол-во потоков такого типа : 1
Тип потока : General
Тип потока : Общее
Идентификатор типа потока : 0
Кол-во аудиопотоков : 1
Audio_Format_List : AC-3
Audio_Format_WithHint_List : AC-3
Аудиокодеки : AC3
Полное имя : H:ТОРРЕНТЫВещиВещиL.AC3.Xvid.BDRip_MRA_AVO.Gavrilov.ac3
Имя папки : H:ТОРРЕНТЫВещи
Имя файла : ВещиL.AC3.Xvid.BDRip_MRA_AVO.Gavrilov
Расширение : ac3
Формат : AC-3
Формат : AC-3
Формат/Информация : Audio Coding 3
Формат/Используется в : ac3
Коммерческое название : AC-3
Кодек : AC-3
Кодек : AC-3
Кодек/Информация : Audio Coding 3
Кодек/Используется в : ac3
Размер файла : 173817600
Размер файла : 166 Мбайт
Размер файла : 166 Мбайт
Размер файла : 166 Мбайт
Размер файла : 166 Мбайт
Размер файла : 165,8 Мбайт
Продолжительность : 7242400
Продолжительность : 2 ч. 0 м.
Продолжительность : 2 ч. 0 м. 42 с. 400 мс.
Продолжительность : 2 ч. 0 м.
Продолжительность : 02:00:42.400
Режим общего битрейта : CBR
Режим общего битрейта : Постоянный
Общий поток : 192000
Общий поток : 192 Кбит/сек
Размер потока : 0
Размер потока : 0,00 байт (0%)
Размер потока : Byte0
Размер потока : 0,0 байт
Размер потока : 0,00 байт
Размер потока : 0,000 байт
Размер потока : 0,00 байт (0%)
Пропорции потока : 0.00000
Дата файла : UTC 2013-09-25 04:41:31.187
Дата файла (местная) : 2013-09-25 11:41:31.187
Дата изменения файла : UTC 2013-09-25 04:53:18.634
Дата изменения файла (местная) : 2013-09-25 11:53:18.634

Аудио
Кол-во : 236
Кол-во потоков такого типа : 1
Тип потока : Audio
Тип потока : Аудио
Идентификатор типа потока : 0
Формат : AC-3
Формат/Информация : Audio Coding 3
Коммерческое название : AC-3
Расширение режима : CM (complete main)
Параметр Endianness формата : Big
Кодек : AC3
Кодек : AC3
Продолжительность : 7242400
Продолжительность : 2 ч. 0 м.
Продолжительность : 2 ч. 0 м. 42 с. 400 мс.
Продолжительность : 2 ч. 0 м.
Продолжительность : 02:00:42.400
Вид битрейта : CBR
Вид битрейта : Постоянный
Битрейт : 192000
Битрейт : 192 Кбит/сек
Каналы : 2
Каналы : 2 канала
Расположение каналов : Front: L R
Расположение каналов : 2/0/0
Частота : 48000
Частота : 48,0 КГц
Количество образцов : 347635200
Счётчик кадров : 226325
Разрешение : 16
Разрешение : 16 бит
Битовая глубина : 16
Битовая глубина : 16 бит
Метод сжатия : Lossy
Метод сжатия : С потерями
Размер потока : 173817600
Размер потока : 166 Мбайт (100%)
Размер потока : 166 Мбайт
Размер потока : 166 Мбайт
Размер потока : 166 Мбайт
Размер потока : 165,8 Мбайт
Размер потока : 166 Мбайт (100%)
Пропорции потока : 1.00000
bsid : 8
dialnorm : -31
dialnorm/String : -31 dB
dsurmod : 0
acmod : 2
lfeon : 0
dialnorm_Average : -31
dialnorm_Average/String : -31 dB
dialnorm_Minimum : -31
dialnorm_Minimum/String : -31 dB
dialnorm_Maximum : -31
dialnorm_Maximum/String : -31 dB
dialnorm_Count : 32



pb.wtf



Скачать Нужные вещи через торрент http://s020.radikal.ru/i719/1309/b5/a638fec06a39.jpg Скачать фильм Нужные вещи через торрент бесплантно в хорошем качестве Год выпуска: 1993Страна: СШАЖанр: ужасы, фэнтези, триллер, драма, криминалПродолжительность: 02:00:44Перевод: Профессиональный ... 10 10 3
Info! Золотая раздача, скачанное не засчитывается.
Торрент: Зарегистрирован [2013-09-25 05:40] · скачан: 43 раз
Статус: √ проверено
Размер: 2.51 GB
Как cкачать? Как скачать Нужные вещи через торрент | qTorrent


>> Регистрируемся здесь <<






Отзывы и комментарии о схеме читаем и пишем здесь: ---> Отзывы и комментарии о схеме

Новые благодарочки в телеграм довольных пользователей:
скриншот   скриншот   скриншот   скриншот   скриншот

25-09-2013 12:04 Нужные вещи Скачать торрент  

Продолжить по Кингу?pb.wtf



    Дорогой пользователь! Огромная просьба, поблагодарите релизера, оцените раздачу и оставьте свои комментарий, если Вы скачали Нужные вещи через торрент бесплатно! Внесите свою лепту в развитие PiratBit!
    Комментировать посты могут только пользователи прошедшие не сложную регистрацию
    Показать сообщения:    

    Нужные вещи через торрент
    Скачать бесплатно Нужные вещи
    Нужные вещи скачать торрент
    Нужные вещи смотреть онлайн
    Cкачать фильм Нужные вещи бесплатно
    Нужные вещи скачать торрент в хорошем качестве
    Нужные вещи смотреть онлайн бесплатно в хорошем качестве


    Вы не можете начинать темы
    Вы не можете отвечать на сообщения
    Вы не можете редактировать свои сообщения
    Вы не можете удалять свои сообщения
    Вы не можете голосовать в опросах
    Вы не можете прикреплять файлы к сообщениям
    Вы можете скачивать файлы