Ссылка на приватное зеркало нашего сайта всего за 1$. Внимание количество ограничено!!!

2 сезон

iTunes

1 сезон

1

iTunes

iTunes

iTunes

1 сезон

RePack

30

ИГРА 18+

pack

ВАЖНО

!!Акция!!

Alien_RageХит недели

RePack

MK11
pack

Забери бонус

RePack

jed

!!Акция!!

Alien_Rage

RePack

fifa19

RePack

Assassins Creed: Odyssey

RePack

NEED FOR SPEED™ PAYBACK

4 сезон

9 сезон

Бесстыжие 9 сезон

Все сериалы

все сериалы на PB.wtf

RePack

FAR CRY 5
  

Звездный десант / Starship Troopers (Пол Верховен) [1997 г., фантастика, боевик, триллер, BDRip 1080p, Дубляж + Оригинал] pb.wtf

Звездный десант через торрент pb.wtf

Размер: 15.23 GB | Добавлен: 7 лет 1 мес. назад | Торрент скачан:223 раза
Скачать  

25-09-2013 13:00 Звездный десант Скачать торрент  

Звездный десант / Starship Troopers
Год выпуска: 1997
Страна: США
Жанр: фантастика, боевик, триллер,
Продолжительность: 02:09:37
Перевод: Дубляж + Оригинал
Субтитры: Русские английские

Режиссер: Пол Верховен

В ролях: Каспер Ван Дин, Дина Мейер, Дениз Ричардс, Джейк Бьюзи, Нил Патрик Харрис, Клэнси Браун, Сет Гиллиам, Патрик Малдун, Майкл Айронсайд, Ру МакКлэнахан,

Описание: В новом тысячелетии над человечеством нависла смертельная опасность. Несметные полчища гигантских разумных жуков с далекой системы планет Клендату угрожают всему живому во вселенной.
Солдат элитного подразделения Джонни Рико и пилот Кармен в составе звездного десанта Землян на космическом военном корабле Тикондерога отправляются в зловещие глубины космоса, чтобы в последней решающей схватке решить судьбу Земли.
В их руках — современнейшее оружие и будущее людской расы.

Качество: BDRip 1080p
Формат: MKV
Видео кодек: H.264
Аудио кодек: AC3
Видео: (1920x1040) 15657 Kbps; 23,976 fps
Аудио#1: AC-3, 6 ch,384 kbps (Rus) 48.0 KHz Дубляж
Аудио#2: AC-3, 6 ch,448 kbps (Eng) 48.0 KHz Оригинал

General
Unique ID : 253368746264019524953056922207082263124 (0xBE9D0BA885505017BAEBE080A2BC3254)
Complete name : C:UsersАдминистраторDesktopStarship.Troopers.1997.BDRip.1080p.mkv
Format : Matroska
Format version : Version 4 / Version 2
File size : 15.2 GiB
Duration : 2h 9mn
Overall bit rate : 16.8 Mbps
Movie name : Starship Troopers 1997 by Torrentirk.ru
Encoded date : UTC 2013-09-25 07:24:05
Writing application : mkvmerge v6.4.1 ('Omega Point') built on Sep 16 2013 22:05:10
Writing library : libebml v1.3.0 + libmatroska v1.4.1

Video
ID : 1
Format : AVC
Format/Info : Advanced Video Codec
Format profile : High@L4.1
Format settings, CABAC : Yes
Format settings, ReFrames : 4 frames
Codec ID : V_MPEG4/ISO/AVC
Duration : 2h 9mn
Bit rate : 15.6 Mbps
Width : 1 920 pixels
Height : 1 040 pixels
Display aspect ratio : 1.85:1
Frame rate mode : Constant
Frame rate : 23.976 fps
Color space : YUV
Chroma subsampling : 4:2:0
Bit depth : 8 bits
Scan type : Progressive
Bits/(Pixel*Frame) : 0.334
Stream size : 14.2 GiB (93%)
Title : Starship Troopers 1997
Writing library : x264 core 120 r2146 bcd41db
Encoding settings : cabac=1 / ref=4 / deblock=1:-3:-3 / analyse=0x3:0x113 / me=umh / subme=11 / psy=1 / psy_rd=0.90:0.10 / mixed_ref=1 / me_range=48 / chroma_me=1 / trellis=2 / 8x8dct=1 / cqm=0 / deadzone=21,11 / fast_pskip=0 / chroma_qp_offset=-3 / threads=12 / sliced_threads=0 / nr=0 / decimate=0 / interlaced=0 / bluray_compat=0 / constrained_intra=0 / bframes=7 / b_pyramid=2 / b_adapt=2 / b_bias=0 / direct=3 / weightb=1 / open_gop=0 / weightp=2 / keyint=250 / keyint_min=23 / scenecut=40 / intra_refresh=0 / rc_lookahead=40 / rc=2pass / mbtree=0 / bitrate=16000 / ratetol=1.0 / qcomp=0.60 / qpmin=0 / qpmax=69 / qpstep=4 / cplxblur=20.0 / qblur=0.5 / vbv_maxrate=50000 / vbv_bufsize=62500 / nal_hrd=none / ip_ratio=1.10 / pb_ratio=1.10 / aq=2:0.80
Language : English
Default : Yes
Forced : No
Matrix coefficients : BT.709

Audio #1
ID : 2
Format : AC-3
Format/Info : Audio Coding 3
Mode extension : CM (complete main)
Format settings, Endianness : Big
Codec ID : A_AC3
Duration : 2h 9mn
Bit rate mode : Constant
Bit rate : 384 Kbps
Channel count : 6 channels
Channel positions : Front: L C R, Side: L R, LFE
Sampling rate : 48.0 KHz
Bit depth : 16 bits
Compression mode : Lossy
Stream size : 356 MiB (2%)
Title : Dub
Language : Russian
Default : Yes
Forced : No

Audio #2
ID : 3
Format : AC-3
Format/Info : Audio Coding 3
Mode extension : CM (complete main)
Format settings, Endianness : Big
Codec ID : A_AC3
Duration : 2h 9mn
Bit rate mode : Constant
Bit rate : 448 Kbps
Channel count : 6 channels
Channel positions : Front: L C R, Side: L R, LFE
Sampling rate : 48.0 KHz
Bit depth : 16 bits
Compression mode : Lossy
Stream size : 415 MiB (3%)
Title : Original
Default : No
Forced : No

Text #1
ID : 4
Format : UTF-8
Codec ID : S_TEXT/UTF8
Codec ID/Info : UTF-8 Plain Text
Language : Russian
Default : No
Forced : No

Text #2
ID : 5
Format : UTF-8
Codec ID : S_TEXT/UTF8
Codec ID/Info : UTF-8 Plain Text
Language : English
Default : No
Forced : No

Menu
00:00:00.000 : en:Chapter 1
00:09:44.834 : en:Chapter 2
00:14:09.139 : en:Chapter 3
00:23:42.504 : en:Chapter 4
00:33:07.777 : en:Chapter 5
00:40:23.587 : en:Chapter 6
00:48:03.630 : en:Chapter 7
00:59:32.402 : en:Chapter 8
01:04:55.683 : en:Chapter 9
01:12:59.333 : en:Chapter 10
01:18:48.306 : en:Chapter 11
01:28:52.702 : en:Chapter 12
01:42:45.617 : en:Chapter 13
01:47:40.787 : en:Chapter 14
01:53:04.402 : en:Chapter 15
01:55:43.394 : en:Chapter 16

pb.wtf



Скачать Звездный десант через торрент http://pic.kartinco.top/images/4/afesk.jpg Скачать фильм Звездный десант через торрент бесплантно в хорошем качестве Описание: В новом тысячелетии над человечеством нависла смертельная опасность. Несметные полчища гигантских разумных жуков с далекой ... 9.9 10 12
Info! Золотая раздача, скачанное не засчитывается.
Торрент: Зарегистрирован [2013-09-25 13:00] · скачан: 223 раз
Статус: √ проверено
Размер: 15.23 GB
Как cкачать? Как скачать Звездный десант через торрент | qTorrent

% Раздел Тема Автор DL S | L
Фильмы (HD 720p, 1080p) (48-60 fps) [ 3.64 GB ] Звездный десант 2: Герой федерации / Starship Troopers 2: Hero of the Federation [2004 BDRip 720p / 60 FPS ] от R.G. HD-Films slaventi-69 Скачать
1 | 0
# Фильмы (Blu-ray, BD-Remux, HDDVD) [ 24.29 GB ] Звездный десант 3: Мародер / Starship Troopers 3: Marauder [2008 BD Remux ] Бумер Скачать
1 | 0
Ultra HD (UHD: 2K, 4K, 8K) [ 38.72 GB ] Звёздный десант: Предатель Марса / Starship Troopers: Traitor of Mars [2017 мультфильм UHD BDRemux 2160p] [Dolby Vision TV] MVO [] bober100 Скачать
1 | 0
Фильмы до 2000 г. [ 4.75 GB ] Звёздный десант / Starship Troopers [1997 BDRip AVC] DUB VO 3xAVO Леонид Ильич Скачать
1 | 0
Ultra HD (UHD: 2K, 4K, 8K) [ 42.22 GB ] Звёздный десант: Предатель Марса / Starship Troopers: Traitor of Mars [2017 мультфильм UHD BDRemux 2160p] MVO [] bober100 Скачать
1 | 0
Ultra HD (UHD: 2K, 4K, 8K) [ 44.37 GB ] Звёздный десант: Предатель Марса / Starship Troopers: Traitor of Mars [2017 мультфильм UHD BDRemux 2160p] MVO [] [Dolby Vision] bober100 Скачать
1 | 0
Ultra HD (UHD: 2K, 4K, 8K) [ 50.78 GB ] Звёздный десант: Предатель Марса / Starship Troopers: Traitor of Mars [2017 мультфильм UHD Blu-ray EUR 2160p] MVO [HDR + Dolby Vision] sheker187 Скачать
1 | 0

28-11-2019 20:33  

Отключить всю рекламу на сайте

    Дорогой пользователь! Огромная просьба, поблагодарите релизера, оцените раздачу и оставьте свои комментарий, если Вы скачали Звездный десант через торрент бесплатно! Внесите свою лепту в развитие PiratBit!
    Комментировать посты могут только пользователи прошедшие не сложную регистрацию
    Показать сообщения:    

    Звездный десант через торрент
    Скачать бесплатно Звездный десант
    Звездный десант скачать торрент
    Звездный десант смотреть онлайн
    Cкачать фильм Звездный десант бесплатно
    Звездный десант скачать торрент в хорошем качестве
    Звездный десант смотреть онлайн бесплатно в хорошем качестве


    Вы не можете начинать темы
    Вы не можете отвечать на сообщения
    Вы не можете редактировать свои сообщения
    Вы не можете удалять свои сообщения
    Вы не можете голосовать в опросах
    Вы не можете прикреплять файлы к сообщениям
    Вы можете скачивать файлы