Ссылка на приватное зеркало нашего сайта всего за 1$. Внимание количество ограничено!!!

2 сезон

iTunes

1 сезон

1

iTunes

iTunes

iTunes

1 сезон

RePack

30

ИГРА 18+

pack

ВАЖНО

!!Акция!!

Alien_RageХит недели

RePack

MK11
pack

Забери бонус

RePack

jed

!!Акция!!

Alien_Rage

RePack

fifa19

RePack

Assassins Creed: Odyssey

RePack

NEED FOR SPEED™ PAYBACK

4 сезон

9 сезон

Бесстыжие 9 сезон

Все сериалы

все сериалы на PB.wtf

RePack

FAR CRY 5
  

Вирус / Virus (Джон Бруно) [1999 г., ужасы, фантастика, боевик, триллер, BDRip 1080p, Дубляж + Оригинал] pb.wtf

Вирус через торрент pb.wtf

Размер: 9.25 GB | Добавлен: 7 лет 1 мес. назад | Торрент скачан:192 раза
Скачать  

25-09-2013 20:27 Вирус Скачать торрент  

Вирус / Virus
Год выпуска: 1999
Страна: США
Жанр: ужасы, фантастика, боевик, триллер,
Продолжительность: 01:38:17
Перевод: Дубляж + Оригинал
Субтитры: Русские английские

Режиссер: Джон Бруно

В ролях: Джэми Ли Кертис, Уильям Болдуин, Дональд Сазерленд, Джоанна Пакула, Маршалл Белл, Шерман Огастес, Клифф Кертис, Хулио Оскар Мечозо, Юрий Червоткин, Кейт Флиппен,

Описание: Команда небольшого американского судна, чудом вырвавшегося из пасти тайфуна, обнаруживает безлюдное российское научно-исследовательское судно. С надеждой на премию около 30 миллионов долларов они собираются отбуксировать его в ближайший порт. Только двое из команды — Кит Фостер и Стив Бейкер — чувствуют опасность.
Правда ужасна: судно подверглось атаке инопланетной мутирующей формы жизни. Мощной и высокоразвитой, которая наконец нашла подходящую планету для своего вторжения! И все же алчность берет свое, не оставив надежды на спасение…

Качество: BDRip 1080p
Формат: MKV
Видео кодек: H.264
Аудио кодек: AC3
Видео: (1920x816) 12.5 Mbps; 23,976 fps
Аудио#1: AC-3, 6 ch, 384 kbps (Rus) 48.0 KHz Дубляж
Аудио#2: AC-3, 6 ch,448 kbps (Eng) 48.0 KHz Оригинал

General
Unique ID : 241113259110828181290326901379886652533 (0xB564B97D7CBFBC6380FCC3B5E3229C75)
Complete name : C:UsersАдминистраторDesktopVirus.1999.BDRip.1080p.mkv
Format : Matroska
Format version : Version 4 / Version 2
File size : 9.25 GiB
Duration : 1h 39mn
Overall bit rate : 13.3 Mbps
Movie name : Virus 1999 by Torrentirk.ru
Encoded date : UTC 2013-09-25 15:53:15
Writing application : mkvmerge v6.4.1 ('Omega Point') built on Sep 16 2013 22:05:10
Writing library : libebml v1.3.0 + libmatroska v1.4.1

Video
ID : 1
Format : AVC
Format/Info : Advanced Video Codec
Format profile : High@L4.1
Format settings, CABAC : Yes
Format settings, ReFrames : 5 frames
Codec ID : V_MPEG4/ISO/AVC
Duration : 1h 39mn
Bit rate : 12.5 Mbps
Width : 1 920 pixels
Height : 816 pixels
Display aspect ratio : 2.35:1
Frame rate mode : Constant
Frame rate : 23.976 fps
Color space : YUV
Chroma subsampling : 4:2:0
Bit depth : 8 bits
Scan type : Progressive
Bits/(Pixel*Frame) : 0.333
Stream size : 8.49 GiB (92%)
Title : Virus 1999
Writing library : x264 core 124 r2197 69a0443
Encoding settings : cabac=1 / ref=5 / deblock=1:-3:-3 / analyse=0x3:0x113 / me=umh / subme=11 / psy=1 / psy_rd=0.95:0.03 / mixed_ref=1 / me_range=48 / chroma_me=1 / trellis=2 / 8x8dct=1 / cqm=0 / deadzone=21,11 / fast_pskip=0 / chroma_qp_offset=-3 / threads=12 / sliced_threads=0 / nr=0 / decimate=0 / interlaced=0 / bluray_compat=0 / constrained_intra=0 / bframes=8 / b_pyramid=2 / b_adapt=2 / b_bias=0 / direct=3 / weightb=1 / open_gop=0 / weightp=2 / keyint=240 / keyint_min=22 / scenecut=40 / intra_refresh=0 / rc_lookahead=40 / rc=2pass / mbtree=0 / bitrate=12501 / ratetol=1.0 / qcomp=0.60 / qpmin=0 / qpmax=69 / qpstep=4 / cplxblur=20.0 / qblur=0.5 / vbv_maxrate=40000 / vbv_bufsize=30000 / nal_hrd=none / ip_ratio=1.40 / pb_ratio=1.30 / aq=1:0.90
Language : English
Default : Yes
Forced : No
Color primaries : BT.709
Transfer characteristics : BT.709
Matrix coefficients : BT.709

Audio #1
ID : 2
Format : AC-3
Format/Info : Audio Coding 3
Mode extension : CM (complete main)
Format settings, Endianness : Big
Codec ID : A_AC3
Duration : 1h 39mn
Bit rate mode : Constant
Bit rate : 384 Kbps
Channel count : 6 channels
Channel positions : Front: L C R, Side: L R, LFE
Sampling rate : 48.0 KHz
Bit depth : 16 bits
Compression mode : Lossy
Stream size : 273 MiB (3%)
Title : Dub
Language : Russian
Default : Yes
Forced : No

Audio #2
ID : 3
Format : AC-3
Format/Info : Audio Coding 3
Mode extension : CM (complete main)
Format settings, Endianness : Big
Codec ID : A_AC3
Duration : 1h 39mn
Bit rate mode : Constant
Bit rate : 448 Kbps
Channel count : 6 channels
Channel positions : Front: L C R, Side: L R, LFE
Sampling rate : 48.0 KHz
Bit depth : 16 bits
Compression mode : Lossy
Stream size : 318 MiB (3%)
Title : Original
Default : No
Forced : No

Text #1
ID : 4
Format : UTF-8
Codec ID : S_TEXT/UTF8
Codec ID/Info : UTF-8 Plain Text
Language : Russian
Default : No
Forced : No

Text #2
ID : 5
Format : UTF-8
Codec ID : S_TEXT/UTF8
Codec ID/Info : UTF-8 Plain Text
Language : English
Default : No
Forced : No

Menu
00:00:00.000 : en:Chapter 1
00:04:52.209 : en:Chapter 2
00:10:33.258 : en:Chapter 3
00:15:06.531 : en:Chapter 4
00:22:43.612 : en:Chapter 5
00:29:30.811 : en:Chapter 6
00:38:42.237 : en:Chapter 7
00:43:08.461 : en:Chapter 8
00:48:26.195 : en:Chapter 9
00:54:57.127 : en:Chapter 10
00:58:28.922 : en:Chapter 11
01:01:47.162 : en:Chapter 12
01:07:31.339 : en:Chapter 13
01:11:30.745 : en:Chapter 14
01:16:35.049 : en:Chapter 15
01:19:27.763 : en:Chapter 16
01:26:21.009 : en:Chapter 17
01:31:02.957 : en:Chapter 18

pb.wtf



Скачать Вирус через торрент http://pic.kartinco.top/images/4/ktfhx.jpg Скачать фильм Вирус через торрент бесплантно в хорошем качестве Описание: Команда небольшого американского судна, чудом вырвавшегося из пасти тайфуна, обнаруживает безлюдное российское ... 9.8 10 13
Info! Золотая раздача, скачанное не засчитывается.
Торрент: Зарегистрирован [2013-09-25 20:27] · скачан: 192 раз
Статус: √ проверено
Размер: 9.25 GB
Как cкачать? Как скачать Вирус через торрент | qTorrent

% Раздел Тема Автор DL S | L
HD ролики [ 296 MB ] Вирус любви / Love virus [2020 Solo Posing Redhead Masturbation SiteRip 1080p] [Stunning18.com / MetArt.com] Pir@tya2010 Скачать
1 | 0
Фильмы [HD 720p, 1080p] (Хороший звук DUB, MVO) [ 10.52 GB ] Вирус / Virus [1999 BDRip 1080p] DUB MVO AVO Леонид Ильич Скачать
2 | 0
Фильмы (Blu-ray, BD-Remux, HDDVD) [ 20.41 GB ] Вирус / Virus [1999 Blu-Ray 1080p] DUB MVO AVO Леонид Ильич Скачать
1 | 0
Документальные фильмы и телепередачи [ 603 MB ] Доктор Вирус / Doctor Virus [2012 Документальный SATRip [Русский]] schultz Скачать
1 | 0
Мультсериалы [ 2.54 GB ] Вирус атакует: Холодная месть / Virus Attack [2011 Мультфильм DVDRip MVO лицензия] XLASER Скачать
1 | 0
Фильмы 2010 [ 1.37 GB ] Вирус Х / Virus X [2010 DVDRip] WISE Скачать
1 | 0
BBC [ 686 MB ] Почему вирусы убивают? / BBC Horizon: Why Do Viruses Kill? [2010 научно-популярный SATRip] markfiter Скачать
1 | 0

28-11-2019 20:33  

Отключить всю рекламу на сайте

26-09-2013 13:27 Вирус Скачать торрент  

качать не буду ,но фильм хороший,советуюpb.wtf



    Дорогой пользователь! Огромная просьба, поблагодарите релизера, оцените раздачу и оставьте свои комментарий, если Вы скачали Вирус через торрент бесплатно! Внесите свою лепту в развитие PiratBit!
    Комментировать посты могут только пользователи прошедшие не сложную регистрацию
    Показать сообщения:    

    Вирус через торрент
    Скачать бесплатно Вирус
    Вирус скачать торрент
    Вирус смотреть онлайн
    Cкачать фильм Вирус бесплатно
    Вирус скачать торрент в хорошем качестве
    Вирус смотреть онлайн бесплатно в хорошем качестве


    Вы не можете начинать темы
    Вы не можете отвечать на сообщения
    Вы не можете редактировать свои сообщения
    Вы не можете удалять свои сообщения
    Вы не можете голосовать в опросах
    Вы не можете прикреплять файлы к сообщениям
    Вы можете скачивать файлы