2 сезон

iTunes

1 сезон

1

iTunes

iTunes

iTunes

1 сезон

RePack

30

ИГРА 18+

pack

ВАЖНО

!!Акция!!

Alien_RageХит недели

RePack

MK11
pack

Забери бонус

RePack

jed

!!Акция!!

Alien_Rage

RePack

fifa19

RePack

Assassins Creed: Odyssey

RePack

NEED FOR SPEED™ PAYBACK

4 сезон

9 сезон

Бесстыжие 9 сезон

Все сериалы

все сериалы на PB.wtf

RePack

FAR CRY 5
  

Смурфики: Легенда о Смурфной лощине / The Smurfs: Legend of Smurfy Hollow (Стефан Франк / Stephan Franck) [ 2013 , США , короткометражка, мультфильм , DVDRip, Дубляж] pb.wtf

Смурфики: Легенда о Смурфной лощине через торрент pb.wtf

Размер: 299 MB | Добавлен: 7 лет 1 мес. назад | Торрент скачан:508 раз
Скачать  

26-09-2013 01:45 Смурфики: Легенда о Смурфной лощине Скачать торрент  

Смурфики: Легенда о Смурфной лощине / The Smurfs: Legend of Smurfy Hollow
Год выпуска: 2013
Страна: США
Жанр: короткометражка, мультфильм
Продолжительность: 00:21:22
Перевод: Профессиональный (полное дублирование)
Субтитры: Нет
Режиссер: Стефан Франк / Stephan Franck

Джек Эйнджел (Papa Smurf, озвучка), Фред Армизен (Brainy Smurf, озвучка), Хэнк Азария (Gargamel, озвучка), Гэри Басараба (Hefty Smurf, озвучка), Алан Камминг (Gutsy Smurf, озвучка), Том Кэйн (рассказчик Smurf, озвучка), Джон Оливер (Vanity Smurf, озвучка), Мелисса Штурм (Smurfette, озвучка), Фрэнк Уэлкер (Azreal, озвучка), Адам Вайли (Panicky Smurf, озвучка), Антон Ельчин (Clumsy Smurf, озвучка)

История начинается с того, как смурфики услышали рассказ местного жителя о существующей давно легенде о Смурфной лощине, в котором постоянно происходят какие-то невероятные вещи. Старый рассказчик говорит о том, что лощина - это очень страшное и опасное место, посещать которое не желательно. Но смурфы решают раз и навсегда покончить с угрожающей всем Смурфной лощиной и изучить ее феномен.

Качество: DVDRip
Формат: AVI
Видео кодек: XviD
Аудио кодек: AC3
Видео: 1755 Кбит/сек, 704*384 (1,85:1), в 25,000 кадров/сек, MPEG-4 Visual (XviD)
Аудио: 192 Кбит/сек, 48,0 КГц, 16 бит, 2 канала, AC-3 (Dolby Digital)



Общее
Кол-во : 284
Кол-во потоков такого типа : 1
Тип потока : General
Тип потока : Общее
Идентификатор типа потока : 0
Inform : AVI: 299 Мбайт, 21 м.
Кол-во видеопотоков : 1
Кол-во аудиопотоков : 1
Video_Format_List : MPEG-4 Visual
Video_Format_WithHint_List : MPEG-4 Visual (XviD)
Видеокодеки : XviD
Audio_Format_List : AC-3
Audio_Format_WithHint_List : AC-3
Аудиокодеки : AC3
Полное имя : H:ТОРРЕНТЫСмурфы.avi
Имя папки : H:ТОРРЕНТЫ
Имя файла : Смурфы
Расширение : avi
Формат : AVI
Формат : AVI
Формат/Информация : Audio Video Interleave
Формат/Используется в : avi
Коммерческое название : AVI
Интернет-тип носителя : video/vnd.avi
Чередующаяся : Yes
Кодек : AVI
Кодек : AVI
Кодек/Информация : Audio Video Interleave
Кодек/Используется в : avi
Размер файла : 313747456
Размер файла : 299 Мбайт
Размер файла : 299 Мбайт
Размер файла : 299 Мбайт
Размер файла : 299 Мбайт
Размер файла : 299,2 Мбайт
Продолжительность : 1282960
Продолжительность : 21 м.
Продолжительность : 21 м. 22 с. 960 мс.
Продолжительность : 21 м.
Продолжительность : 00:21:22.960
Общий поток : 1956397
Общий поток : 1956 Кбит/сек
Размер потока : 1567278
Размер потока : 1,49 Мбайт (0%)
Размер потока : 1 Мбайт
Размер потока : 1,5 Мбайт
Размер потока : 1,49 Мбайт
Размер потока : 1,495 Мбайт
Размер потока : 1,49 Мбайт (0%)
Пропорции потока : 0.00500
Дата файла : UTC 2013-09-26 01:01:29.890
Дата файла (местная) : 2013-09-26 08:01:29.890
Дата изменения файла : UTC 2013-09-26 01:11:29.722
Дата изменения файла (местная) : 2013-09-26 08:11:29.722
Программа кодирования : VirtualDubMod 1.5.10.3 | www.virtualdub-fr.org || (build 2550/release)
Библиотека кодирования : VirtualDubMod build 2550/release
Библиотека кодирования : VirtualDubMod build 2550/release

Видео
Кол-во : 263
Кол-во потоков такого типа : 1
Тип потока : Video
Тип потока : Видео
Идентификатор типа потока : 0
StreamOrder : 0
Inform : 1755 Кбит/сек, 704*384 (1,85:1), в 25,000 кадров/сек, MPEG-4 Visual (XviD) (Advanced Simple@L5) (BVOP1 / Custom Matrix)
Идентификатор : 0
Идентификатор : 0
Формат : MPEG-4 Visual
Коммерческое название : MPEG-4 Visual
Профиль формата : Advanced Simple@L5
Настройки формата : BVOP1 / Custom Matrix
Параметр BVOP формата : 1
Параметр BVOP формата : 1
Параметр QPel формата : No
Параметр QPel формата : Нет
Параметр GMC формата : 0
Параметр GMC формата : Без точки перехода
Параметр матрицы формата : Custom
Параметр матрицы формата : Выборочная
Format_Settings_Matrix_Data : 080A0A0A0A0A0A0A0A0A0B0A0B0A0B0B0B0B0B0B0B0D0C0D0D0D0C0D0F0E0E0F0F0E0E0F10101113111010121316161312171A1C1A171D22221D292C29373748 / 0F0F0F0F0F0F0F0F0F0F100F100F101110111110111312131313121316141416161414161717191C1917171B1D20201D1B21262926212B32322B3C423C51516A
Интернет-тип носителя : video/MP4V-ES
Идентификатор кодека : XVID
Идентификатор кодека/Подсказка : XviD
Идентификатор кодека/Ссылка : http://mediaarea.net/XVID
Кодек : XVID
Кодек : XviD
Кодек/Семейство : MPEG-4V
Кодек/Информация : XviD project
Кодек/Ссылка : http://www.xvid.org/Downloads.15.0.html
Кодек/CC : XVID
Профиль кодека : Advanced Simple@L5
Настройки кодека : BVOP / Custom Matrix
Параметр пакетного потока данных кодека : No
Параметр BVOP кодека : Yes
Параметр QPel кодека : No
Параметр GMC кодека : 0
Параметр GMC кодека : Без точки перехода
Параметр матрицы кодека : Custom
Продолжительность : 1282960
Продолжительность : 21 м.
Продолжительность : 21 м. 22 с. 960 мс.
Продолжительность : 21 м.
Продолжительность : 00:21:22.960
Битрейт : 1754625
Битрейт : 1755 Кбит/сек
Ширина : 704
Ширина : 704 пикселя
Высота : 384
Высота : 384 пикселя
Пропорции пикселя : 1.000
Соотношение сторон : 1.833
Соотношение сторон : 1,85:1
Частота кадров : 25.000
Частота кадров : 25,000 кадров/сек
Счётчик кадров : 32074
Разрешение : 8
Разрешение : 8 бит
Колориметрия : 4:2:0
Цветовое пространство : YUV
Субдискретизация насыщенности : 4:2:0
Битовая глубина : 8
Битовая глубина : 8 бит
Тип развёртки : Progressive
Тип развёртки : Прогрессивная
Переплетение : PPF
Переплетение : Прогрессивная
Метод сжатия : Lossy
Метод сжатия : С потерями
Бит/(Пиксели*Кадры) : 0.260
Задержка : 0
Задержка : 00:00:00.000
Размер потока : 281389138
Размер потока : 268 Мбайт (90%)
Размер потока : 268 Мбайт
Размер потока : 268 Мбайт
Размер потока : 268 Мбайт
Размер потока : 268,4 Мбайт
Размер потока : 268 Мбайт (90%)
Пропорции потока : 0.89687
Библиотека кодирования : XviD0050
Библиотека кодирования : XviD 1.2.1 (UTC 2008-12-04)
Библиотека кодирования/Имя : XviD
Библиотека кодирования/Version : 1.2.1
Библиотека кодирования/Дата : UTC 2008-12-04

Аудио
Кол-во : 254
Кол-во потоков такого типа : 1
Тип потока : Audio
Тип потока : Аудио
Идентификатор типа потока : 0
StreamOrder : 1
Inform : 192 Кбит/сек, 48,0 КГц, 16 бит, 2 канала, AC-3 (Dolby Digital)
Идентификатор : 1
Идентификатор : 1
Формат : AC-3
Формат/Информация : Audio Coding 3
Коммерческое название : AC-3
Профиль формата : Dolby Digital
Расширение режима : CM (complete main)
Параметр Endianness формата : Big
Идентификатор кодека : 2000
Кодек : AC3
Кодек : AC3
Кодек/Семейство : AC3
Кодек/Информация : Dolby AC3
Кодек/CC : 2000
Профиль кодека : Dolby Digital
Продолжительность : 1282960
Продолжительность : 21 м.
Продолжительность : 21 м. 22 с. 960 мс.
Продолжительность : 21 м.
Продолжительность : 00:21:22.960
Вид битрейта : CBR
Вид битрейта : Постоянный
Битрейт : 192000
Битрейт : 192 Кбит/сек
Каналы : 2
Каналы : 2 канала
Расположение каналов : Front: L R
Расположение каналов : 2/0/0
Частота : 48000
Частота : 48,0 КГц
Количество образцов : 61582080
Разрешение : 16
Разрешение : 16 бит
Битовая глубина : 16
Битовая глубина : 16 бит
Метод сжатия : Lossy
Метод сжатия : С потерями
Задержка : 1000
Задержка : 1 с. 0 мс.
Задержка : 1 с. 0 мс.
Задержка : 1 с. 0 мс.
Задержка : 00:00:01.000
Задержка в оригинале : Stream
Задержка в оригинале : 'Сырой' поток
Задержка видео : 1000
Задержка видео : 1 с. 0 мс.
Задержка видео : 1 с. 0 мс.
Задержка видео : 1 с. 0 мс.
Задержка видео : 00:00:01.000
Задержка видео : 1000
Задержка видео : 1 с. 0 мс.
Задержка видео : 1 с. 0 мс.
Задержка видео : 1 с. 0 мс.
Задержка видео : 00:00:01.000
Размер потока : 30791040
Размер потока : 29,4 Мбайт (10%)
Размер потока : 29 Мбайт
Размер потока : 29 Мбайт
Размер потока : 29,4 Мбайт
Размер потока : 29,36 Мбайт
Размер потока : 29,4 Мбайт (10%)
Пропорции потока : 0.09814
Выравнивание : Split
Выравнивание : Разделение по промежуткам
Продолжительность промежутка : 1.00
Продолжительность промежутка : 40
Продолжительность промежутка : 40 мс. (1,00 видеокадр)
Время предзагрузки промежутка : 500
Время предзагрузки промежутка : 500 мс.
bsid : 6
dialnorm : -27
dialnorm/String : -27 dB
compr : 5.74
compr/String : 5.74 dB
dynrng : 5.60
dynrng/String : 5.60 dB
dsurmod : 2
dsurmod/String : Dolby Surround encoded
acmod : 2
lfeon : 0
dialnorm_Average : -27
dialnorm_Average/String : -27 dB
dialnorm_Minimum : -27
dialnorm_Minimum/String : -27 dB
dialnorm_Maximum : -27
dialnorm_Maximum/String : -27 dB
dialnorm_Count : 358
compr_Average : 0.51
compr_Average/String : 0.51 dB
compr_Minimum : -3.66
compr_Minimum/String : -3.66 dB
compr_Maximum : 5.74
compr_Maximum/String : 5.74 dB
compr_Count : 358
dynrng_Average : 0.55
dynrng_Average/String : 0.55 dB
dynrng_Minimum : -3.45
dynrng_Minimum/String : -3.45 dB
dynrng_Maximum : 5.88
dynrng_Maximum/String : 5.88 dB
dynrng_Count : 358



pb.wtf



Скачать Смурфики: Легенда о Смурфной лощине через торрент http://s53.radikal.ru/i139/1309/da/7b2fcfd3423e.jpg Скачать фильм Смурфики: Легенда о Смурфной лощине через торрент бесплантно в хорошем качестве Год выпуска: 2013Страна: СШАЖанр: короткометражка, мультфильмПродолжительность: 00:21:22Перевод: Профессиональный (полное ... 9.7 10 18
Info! Золотая раздача, скачанное не засчитывается.
Торрент: Зарегистрирован [2013-09-26 01:45] · скачан: 508 раз
Статус: √ проверено
Размер: 299 MB
Как cкачать? Как скачать Смурфики: Легенда о Смурфной лощине через торрент | qTorrent

% Раздел Тема Автор DL S | L
Зарубежные Мультфильмы (DVD) [ 1.32 GB ] Смурфики: Легенда о Смурфной лощине / The Smurfs: Legend of Smurfy Hollow [2013 короткометражка мультфильм DVD5] R5 voovaz Скачать
1 | 0

28-11-2019 20:33  

Отключить всю рекламу на сайте

26-09-2013 01:48 Смурфики: Легенда о Смурфной лощине Скачать торрент  

Не знал куда пристроить бедолаг))) pb.wtf



26-09-2013 08:31 Смурфики: Легенда о Смурфной лощине Скачать торрент  

думал, что это полнометражный мультpb.wtf



    Дорогой пользователь! Огромная просьба, поблагодарите релизера, оцените раздачу и оставьте свои комментарий, если Вы скачали Смурфики: Легенда о Смурфной лощине через торрент бесплатно! Внесите свою лепту в развитие PiratBit!
    Комментировать посты могут только пользователи прошедшие не сложную регистрацию
    Показать сообщения:    

    Смурфики: Легенда о Смурфной лощине через торрент
    Скачать бесплатно Смурфики: Легенда о Смурфной лощине
    Смурфики: Легенда о Смурфной лощине скачать торрент
    Смурфики: Легенда о Смурфной лощине смотреть онлайн
    Cкачать фильм Смурфики: Легенда о Смурфной лощине бесплатно
    Смурфики: Легенда о Смурфной лощине скачать торрент в хорошем качестве
    Смурфики: Легенда о Смурфной лощине смотреть онлайн бесплатно в хорошем качестве


    Вы не можете начинать темы
    Вы не можете отвечать на сообщения
    Вы не можете редактировать свои сообщения
    Вы не можете удалять свои сообщения
    Вы не можете голосовать в опросах
    Вы не можете прикреплять файлы к сообщениям
    Вы можете скачивать файлы