2 сезон

iTunes

MVO

1

2 сезон

iTunes

iTunes

1 сезон

RePack

30

Ultimate

ВАЖНО

ИГРА 18+

pack

RePack

MK11
pack

Легкие деньги

RePack

jed

RePack

fifa19

RePack

RDR2

RePack

NEED FOR SPEED™ PAYBACK

4 сезон

9 сезон

Бесстыжие 9 сезон

Все сериалы

все сериалы на PB.wtf

RePack

FAR CRY 5

Anonymous, добрый вечер, мы не успеваем собрать деньги на оплату серверов за декабрь и январь, помогите нам пожалуйста в это трудное время. В качестве благодарности мы отключим Вам всю рекламу на сайте (укажите свой ник в строку Ваше имя)!

×
  
Magnet ссылка

Слабые проблески / Rushlights (Энтони Стац) [2013 г., Триллер, Мелодрама, Криминал, HDRip, Профессиональный двухголосый] pb.wtf

Слабые проблески через торрент pb.wtf

Размер: 1.46 GB | Добавлен: 7 лет 3 мес. назад | Торрент скачан:334 раза
Скачать  

26-09-2013 05:37 Слабые проблески Скачать торрент  

Слабые проблески / Rushlights

Год выпуска: 2013
Страна: США
Жанр: триллер, мелодрама, криминал

Продолжительность: 01:39:00
Перевод: Профессиональный (двухголосый)
Субтитры: Нет

Режиссер: Энтони Стац(Antoni Stutz)

Бо Бриджес, Эйдан Куинн, Джош Хендерсон, Хейли Уэбб, Джордан Бриджес, Лорна Рэвер, Джоэль МакКиннон Миллер, Криспиан Белфрадж, Филип Ленковски, Эйлин Грубба

Описание:
Парочка молодых влюбленных из Лос-Анджелеса - Билли и Сара - решают провернуть небольшую аферу с целью обогащения. Для этого они отправляются в маленький городок в Техасе, чтобы обманным путем получить наследство дяди погибшей девушки-соседки. Однако здесь им предстоит оказаться в кошмарной атмосфере жадности и предательства, когда они столкнутся с представителями местного преступного мира...

Рейтинг
kinopoisk.ru 5.108 (80)
imdb.com: 4.10 (311)
MPAAR - Лицам до 17 лет обязательно присутствие взрослого

Качество: HDRip
Формат: AVI
Видео кодек: XviD
Аудио кодек: AC3
Видео: 1972 Кбит/сек, 720*304 (2,35:1), в 23,976 кадра/сек, MPEG-4 Visual (XviD)
Аудио: 192 Кбит/сек, 48,0 КГц, 16 бит, 2 канала, AC-3





Общее
Кол-во : 279
Кол-во потоков такого типа : 1
Тип потока : General
Тип потока : Общее
Идентификатор типа потока : 0
Inform : AVI: 1,46 Гбайт, 1 ч. 36 м.
Кол-во видеопотоков : 1
Кол-во аудиопотоков : 1
Video_Format_List : MPEG-4 Visual
Video_Format_WithHint_List : MPEG-4 Visual (XviD)
Видеокодеки : XviD
Audio_Format_List : AC-3
Audio_Format_WithHint_List : AC-3
Аудиокодеки : AC3
Полное имя : D:ФильмыПроблески.avi
Имя папки : D:Фильмы
Имя файла : Проблески
Расширение : avi
Формат : AVI
Формат : AVI
Формат/Информация : Audio Video Interleave
Формат/Используется в : avi
Коммерческое название : AVI
Интернет-тип носителя : video/vnd.avi
Чередующаяся : No
Кодек : AVI
Кодек : AVI
Кодек/Информация : Audio Video Interleave
Кодек/Используется в : avi
Размер файла : 1569226632
Размер файла : 1,46 Гбайт
Размер файла : 1 Гбайт
Размер файла : 1,5 Гбайт
Размер файла : 1,46 Гбайт
Размер файла : 1,461 Гбайт
Продолжительность : 5781067
Продолжительность : 1 ч. 36 м.
Продолжительность : 1 ч. 36 м. 21 с. 67 мс.
Продолжительность : 1 ч. 36 м.
Продолжительность : 01:36:21.067
Общий поток : 2171539
Общий поток : 2172 Кбит/сек
Размер потока : 5567431
Размер потока : 5,31 Мбайт (0%)
Размер потока : 5 Мбайт
Размер потока : 5,3 Мбайт
Размер потока : 5,31 Мбайт
Размер потока : 5,310 Мбайт
Размер потока : 5,31 Мбайт (0%)
Пропорции потока : 0.00355
Дата файла : UTC 2013-09-26 03:31:12.524
Дата файла (местная) : 2013-09-26 10:31:12.524
Дата изменения файла : UTC 2013-09-26 05:29:15.178
Дата изменения файла (местная) : 2013-09-26 12:29:15.178

Видео
Кол-во : 248
Кол-во потоков такого типа : 1
Тип потока : Video
Тип потока : Видео
Идентификатор типа потока : 0
Inform : 1972 Кбит/сек, 720*304 (2,35:1), в 23,976 кадра/сек, MPEG-4 Visual (XviD) (Advanced Simple@L5) (BVOP2 / Custom Matrix)
Идентификатор : 0
Идентификатор : 0
Формат : MPEG-4 Visual
Коммерческое название : MPEG-4 Visual
Профиль формата : Advanced Simple@L5
Настройки формата : BVOP2 / Custom Matrix
Параметр BVOP формата : 2
Параметр BVOP формата : 2
Параметр QPel формата : No
Параметр QPel формата : Нет
Параметр GMC формата : 0
Параметр GMC формата : Без точки перехода
Параметр матрицы формата : Custom
Параметр матрицы формата : Выборочная
Format_Settings_Matrix_Data : 080A0A0B0B0B0B0B0B0B0C0C0C0C0C0D0D0D0D0D0D0E0E0E0E0E0E0E10101010101010101111121212111113141515141317181918171E20201E282B28353546 / 0D0E0E0F0F0F0F0F0F0F1010101010121212121212141414141414141616161616161616181819191918181B1C1D1D1C1B20212221202A2D2D2A383C384A4A62
Интернет-тип носителя : video/MP4V-ES
Идентификатор кодека : XVID
Идентификатор кодека/Подсказка : XviD
Идентификатор кодека/Ссылка : http://mediaarea.net/XVID
Кодек : XVID
Кодек : XviD
Кодек/Семейство : MPEG-4V
Кодек/Информация : XviD project
Кодек/Ссылка : http://www.xvid.org/Downloads.15.0.html
Кодек/CC : XVID
Профиль кодека : Advanced Simple@L5
Настройки кодека : BVOP / Custom Matrix
Параметр пакетного потока данных кодека : No
Параметр BVOP кодека : Yes
Параметр QPel кодека : No
Параметр GMC кодека : 0
Параметр GMC кодека : Без точки перехода
Параметр матрицы кодека : Custom
Продолжительность : 5781067
Продолжительность : 1 ч. 36 м.
Продолжительность : 1 ч. 36 м. 21 с. 67 мс.
Продолжительность : 1 ч. 36 м.
Продолжительность : 01:36:21.067
Битрейт : 1971889
Битрейт : 1972 Кбит/сек
Ширина : 720
Ширина : 720 пикселей
Высота : 304
Высота : 304 пикселя
Пропорции пикселя : 1.000
Соотношение сторон : 2.368
Соотношение сторон : 2,35:1
Частота кадров : 23.976
Частота кадров : 23,976 кадра/сек
Счётчик кадров : 138607
Разрешение : 8
Разрешение : 8 бит
Колориметрия : 4:2:0
Цветовое пространство : YUV
Субдискретизация насыщенности : 4:2:0
Битовая глубина : 8
Битовая глубина : 8 бит
Тип развёртки : Progressive
Тип развёртки : Прогрессивная
Переплетение : PPF
Переплетение : Прогрессивная
Метод сжатия : Lossy
Метод сжатия : С потерями
Бит/(Пиксели*Кадры) : 0.376
Задержка : 0
Задержка : 00:00:00.000
Размер потока : 1424954561
Размер потока : 1,33 Гбайт (91%)
Размер потока : 1 Гбайт
Размер потока : 1,3 Гбайт
Размер потока : 1,33 Гбайт
Размер потока : 1,327 Гбайт
Размер потока : 1,33 Гбайт (91%)
Пропорции потока : 0.90806
Библиотека кодирования : XviD0073
Библиотека кодирования : XviD 73
Библиотека кодирования/Имя : XviD
Библиотека кодирования/Version : 73

Аудио
Кол-во : 235
Кол-во потоков такого типа : 1
Тип потока : Audio
Тип потока : Аудио
Идентификатор типа потока : 0
Inform : 192 Кбит/сек, 48,0 КГц, 16 бит, 2 канала, AC-3
Идентификатор : 1
Идентификатор : 1
Формат : AC-3
Формат/Информация : Audio Coding 3
Коммерческое название : AC-3
Расширение режима : CM (complete main)
Параметр Endianness формата : Big
Идентификатор кодека : 2000
Кодек : AC3
Кодек : AC3
Кодек/Семейство : AC3
Кодек/Информация : Dolby AC3
Кодек/CC : 2000
Продолжительность : 5779360
Продолжительность : 1 ч. 36 м.
Продолжительность : 1 ч. 36 м. 19 с. 360 мс.
Продолжительность : 1 ч. 36 м.
Продолжительность : 01:36:19.360
Вид битрейта : CBR
Вид битрейта : Постоянный
Битрейт : 192000
Битрейт : 192 Кбит/сек
Каналы : 2
Каналы : 2 канала
Расположение каналов : Front: L R
Расположение каналов : 2/0/0
Частота : 48000
Частота : 48,0 КГц
Количество образцов : 277409280
Разрешение : 16
Разрешение : 16 бит
Битовая глубина : 16
Битовая глубина : 16 бит
Метод сжатия : Lossy
Метод сжатия : С потерями
Задержка : 0
Задержка : 00:00:00.000
Задержка в оригинале : Stream
Задержка в оригинале : 'Сырой' поток
Задержка видео : 0
Задержка видео : 0
Размер потока : 138704640
Размер потока : 132 Мбайт (9%)
Размер потока : 132 Мбайт
Размер потока : 132 Мбайт
Размер потока : 132 Мбайт
Размер потока : 132,3 Мбайт
Размер потока : 132 Мбайт (9%)
Пропорции потока : 0.08839
Выравнивание : Aligned
Выравнивание : Соединение по промежуткам
Продолжительность промежутка : 1.53
Продолжительность промежутка : 64
Продолжительность промежутка : 64 мс. (1,53 видеокадра)
Время предзагрузки промежутка : 192
Время предзагрузки промежутка : 192 мс.
Заголовок : T2_Audio - Russian
dsurmod : 0
dialnorm : -31
dialnorm/String : -31 dB
bsid : 8
dialnorm_Average : -31
dialnorm_Average/String : -31 dB
dialnorm_Minimum : -31
dialnorm_Minimum/String : -31 dB
dialnorm_Maximum : -31
dialnorm_Maximum/String : -31 dB
dialnorm_Count : 600
compr_Average : -0.44
compr_Average/String : -0.44 dB
compr_Minimum : -6.02
compr_Minimum/String : -6.02 dB
compr_Maximum : -0.28
compr_Maximum/String : -0.28 dB
compr_Count : 597

pb.wtf



Скачать Слабые проблески через торрент http://s015.radikal.ru/i333/1309/ea/2591dde43617.jpg Скачать фильм Слабые проблески через торрент бесплантно в хорошем качестве Описание:Парочка молодых влюбленных из Лос-Анджелеса - Билли и Сара - решают провернуть небольшую аферу с целью обогащения. Для этого они ... 9.7 10 12
Info! Золотая раздача, скачанное не засчитывается.
Торрент: Зарегистрирован [2013-09-26 05:39] · скачан: 334 раз
Статус: T временная
Размер: 1.46 GB
Как cкачать? Как скачать Слабые проблески через торрент | UTorrent

% Раздел Тема Автор DL S | L
Фильмы 2013 [DVDrip, WEB-DLRip, HDrip] [ 1.47 GB ] Слабые проблески / Rushlights [2013 WEB-DLRip двухголосый] Ворон Скачать
1 | 0


Последний раз редактировалось: GEKADOL (2013-09-26 09:43), всего редактировалось 11 раз(а)

28-11-2019 20:33  

Отключить всю рекламу на сайте

26-09-2013 05:55 Слабые проблески Скачать торрент  

В описании указать перевод.
Уменьшить обложку до 700 пикселей
В ролях пишем в строчку через запятую
Убрать картинки внизу.
Добавить сэмплpb.wtf



26-09-2013 06:53 Слабые проблески Скачать торрент  

Бо Бриджес
(Sheriff Robert Brogden, Jr.),
Эйдан Куинн
(Cameron Brogden),
Джош Хендерсон
(Billy Brody),
Хейли Уэбб
(Sarah),
Джордан Бриджес
(Earl),
Лорна Рэвер
(Belle),
Джоэль МакКиннон Миллер
(Sal Marinaro),
Криспиан Белфрадж
(Edward Romero),
Филип Ленковски
(Sly Wheaton),
Эйлин Грубба
(Alice),
Теренс Берни Хайнс
(Joe),
Нестор Аарон Абсера
(Jamie Albright)
а можно ещё продюссеров и режиссёров добавить? я так люблю крутить колёсико на мышке!pb.wtf



    Дорогой пользователь! Огромная просьба, поблагодарите релизера, оцените раздачу и оставьте свои комментарий, если Вы скачали Слабые проблески через торрент бесплатно! Внесите свою лепту в развитие PiratBit!
    Комментировать посты могут только пользователи прошедшие не сложную регистрацию
    Показать сообщения:    

    Слабые проблески через торрент
    Скачать бесплатно Слабые проблески
    Слабые проблески скачать торрент
    Слабые проблески смотреть онлайн
    Cкачать фильм Слабые проблески бесплатно
    Слабые проблески скачать торрент в хорошем качестве
    Слабые проблески смотреть онлайн бесплатно в хорошем качестве


    Вы не можете начинать темы
    Вы не можете отвечать на сообщения
    Вы не можете редактировать свои сообщения
    Вы не можете удалять свои сообщения
    Вы не можете голосовать в опросах
    Вы не можете прикреплять файлы к сообщениям
    Вы можете скачивать файлы