Ссылка на приватное зеркало всего за 1$. Внимание количество ограничено!!!

iTunes

iTunes

iTunes

1

iTunes

iTunes

iTunes

iTunes

iTunes

30
pack

$ от Little Big

ВАЖНО

!!Акция!!

Alien_RageХит недели

RePack

Resident Evil 21

ИГРА 18+

pack

RePack

jed

!!Акция!!

Alien_Rage

RePack

fifa19

RePack

Assassins Creed: Odyssey

RePack

NEED FOR SPEED™ PAYBACK

4 сезон

9 сезон

Бесстыжие 9 сезон

Все сериалы

все сериалы на PB.wtf

RePack

FAR CRY 5
  

Татуированный / The Tattooed One / Le tatoué (Дени де Ла Пательер / Denys de La Patellière) [1968, Франция, Италия, комедия, WEB-DL 720p] MVO (Film Prestige) + MVO (ОРТ) + MVO + Sub Rus + Original Fre pb.wtf

Татуированный через торрент pb.wtf

Размер: 3.13 GB | Добавлен: 6 лет 9 мес. назад | Торрент скачан:17 раз
Скачать  

26-09-2013 15:42 Татуированный Скачать торрент  

Татуированный / The Tattooed One / Le tatoué
Страна: Франция, Италия
Жанр: комедия
Год выпуска: 1968
Продолжительность: 01:30:04

Перевод 1: Профессиональный (многоголосый закадровый) Film Prestige
Перевод 2: Профессиональный (многоголосый закадровый) ОРТ
Перевод 3: Профессиональный (многоголосый закадровый)
Cубтитры: русские
Оригинальная аудиодорожка: французский

Режиссер: Дени де Ла Пательер / Denys de La Patellière

В ролях: Луи де Фюнес, Жан Габен, Поль Мерси, Ив Барсак, Пьер Торнад, Жан-Пьер Даррас, Джо Уорфилд, Дональд Дж. фон Кертц, Лин Шардонне, Ибрахим Сек

Описание: Шустрый и нечистоплотный торговец антиквариатом Фелисьен Мезере случайно видит на широкой спине позирующего художнику пожилого человека необычную татуировку. Опытный глаз пройдохи сразу определяет руку мастера — и действительно, этот рисунок когда-то сделал майору Леграну великий Модильяни.

Фелисьен незамедлительно предлагает Леграну продать кожу со спины за любые деньги, но тот с возмущением отвергает абсурдное предложение. Но обезумевший от жадности антиквар готов на все, лишь бы заполучить в свои руки бесценный шедевр и продать его втридорога. Легран в конце концов соглашается, но в обмен на небольшую услугу. Фелисьен не раздумывая соглашается, и они отправляются в необычное путешествие…

Релиз от:
Источник: iTunes (France)

Качество видео: WEB-DL 720p
Формат видео: MKV
Видео кодек: AVC
Аудио кодек: AC3
Видео: 1280x542 at 24.000 fps (True24p), ~4200 kbps avg
Аудио#1: 48 kHz, 2/0 (L,R) ch, ~192.00 kbps avg | Многоголосый закадровый, Film Prestige
Аудио#2: 48 kHz, 2/0 (L,R) ch, ~192.00 kbps avg |Многоголосый закадровый, ОРТ
Аудио#3: 48 kHz, AC3, 2/0 (L,R) ch, ~192.00 kbps avg | Многоголосый закадровый
Аудио#4: 48 kHz, AAC, 2/0 (L,R) ch, ~160.00 kbps avg | Оригинал
General
Unique ID : 243242124751523975296334107173806760555 (0xB6FEBAAB8289939587EB364845A9626B)
Complete name : D:Le.Tatoue.1968.720p.WEB-DL.3xRus.Fre.Sub.HDCLUB.mkv
Format : Matroska
Format version : Version 4 / Version 2
File size : 3.13 GiB
Duration : 1h 30mn
Overall bit rate : 4 968 Kbps
Movie name : Le Tatoue (1968) - Release by xamster for HDCLUB
Encoded date : UTC 2010-02-22 21:41:31
Writing application : mkvmerge v5.9.0 ('On The Loose') built on Dec 9 2012 15:37:01
Writing library : libebml v1.3.0 + libmatroska v1.4.0

Video
ID : 1
Format : AVC
Format/Info : Advanced Video Codec
Format profile : Main@L3.1
Format settings, CABAC : No
Format settings, ReFrames : 2 frames
Codec ID : V_MPEG4/ISO/AVC
Duration : 1h 30mn
Width : 1 280 pixels
Height : 542 pixels
Display aspect ratio : 2.35:1
Frame rate mode : Constant
Frame rate : 24.000 fps
Color space : YUV
Chroma subsampling : 4:2:0
Bit depth : 8 bits
Scan type : Progressive
Title : Release by xamster for HDCLUB
Language : French
Default : Yes
Forced : No
Color primaries : BT.709
Transfer characteristics : BT.709
Matrix coefficients : BT.709

Audio #1
ID : 2
Format : AC-3
Format/Info : Audio Coding 3
Format profile : Dolby Digital
Mode extension : CM (complete main)
Format settings, Endianness : Big
Codec ID : A_AC3
Duration : 1h 30mn
Bit rate mode : Constant
Bit rate : 192 Kbps
Channel(s) : 2 channels
Channel positions : Front: L R
Sampling rate : 48.0 KHz
Bit depth : 16 bits
Compression mode : Lossy
Stream size : 124 MiB (4%)
Title : AC3 48kHz 2.0 192 kbps MVO Film Prestige
Language : Russian
Default : Yes
Forced : No

Audio #2
ID : 3
Format : AC-3
Format/Info : Audio Coding 3
Format profile : Dolby Digital
Mode extension : CM (complete main)
Format settings, Endianness : Big
Codec ID : A_AC3
Duration : 1h 30mn
Bit rate mode : Constant
Bit rate : 192 Kbps
Channel(s) : 2 channels
Channel positions : Front: L R
Sampling rate : 48.0 KHz
Bit depth : 16 bits
Compression mode : Lossy
Stream size : 124 MiB (4%)
Title : AC3 48kHz 2.0 192 kbps MVO ORT
Language : Russian
Default : No
Forced : No

Audio #3
ID : 4
Format : AC-3
Format/Info : Audio Coding 3
Format profile : Dolby Digital
Mode extension : CM (complete main)
Format settings, Endianness : Big
Codec ID : A_AC3
Duration : 1h 30mn
Bit rate mode : Constant
Bit rate : 192 Kbps
Channel(s) : 2 channels
Channel positions : Front: L R
Sampling rate : 48.0 KHz
Bit depth : 16 bits
Compression mode : Lossy
Stream size : 124 MiB (4%)
Title : AC3 48kHz 2.0 192 kbps MVO
Language : Russian
Default : No
Forced : No

Audio #4
ID : 5
Format : AAC
Format/Info : Advanced Audio Codec
Format profile : LC
Codec ID : A_AAC
Duration : 1h 30mn
Channel(s) : 2 channels
Channel positions : Front: L R
Sampling rate : 48.0 KHz
Compression mode : Lossy
Title : AAC 2.0 VBR Original
Language : French
Default : No
Forced : No

Text
ID : 6
Format : UTF-8
Codec ID : S_TEXT/UTF8
Codec ID/Info : UTF-8 Plain Text
Title : Russian
Language : Russian
Default : No
Forced : No

Menu
00:00:00.000 : en:Chapitre 1
00:09:00.000 : en:Chapitre 2
00:18:00.000 : en:Chapitre 3
00:27:00.000 : en:Chapitre 4
00:36:00.000 : en:Chapitre 5
00:45:00.000 : en:Chapitre 6
00:54:00.000 : en:Chapitre 7
01:03:00.000 : en:Chapitre 8
01:12:00.000 : en:Chapitre 9
01:21:00.000 : en:Chapitre 10
http://multi-up.com/906846
pb.wtf



Скачать Татуированный через торрент http://i59.fastpic.ru/big/2013/0925/16/b12a6f36b2722f7cca8f083917c98916.jpg Скачать фильм Татуированный через торрент бесплантно в хорошем качестве Описание: Шустрый и нечистоплотный торговец антиквариатом Фелисьен Мезере случайно видит на широкой спине позирующего художнику пожилого ... 5 10 1
Info! Золотая раздача, скачанное не засчитывается.
Торрент: Зарегистрирован [2013-09-26 15:42] · скачан: 17 раз
Статус: √ проверено
Размер: 3.13 GB
Как cкачать? Как скачать Татуированный через торрент | qTorrent

28-11-2019 20:33  

Отключить всю рекламу на сайте

    Дорогой пользователь! Огромная просьба, поблагодарите релизера, оцените раздачу и оставьте свои комментарий, если Вы скачали Татуированный через торрент бесплатно! Внесите свою лепту в развитие PiratBit!
    Комментировать посты могут только пользователи прошедшие не сложную регистрацию
    Показать сообщения:    

    Татуированный через торрент
    Скачать бесплатно Татуированный
    Татуированный скачать торрент
    Татуированный смотреть онлайн
    Cкачать фильм Татуированный бесплатно
    Татуированный скачать торрент в хорошем качестве
    Татуированный смотреть онлайн бесплатно в хорошем качестве


    Вы не можете начинать темы
    Вы не можете отвечать на сообщения
    Вы не можете редактировать свои сообщения
    Вы не можете удалять свои сообщения
    Вы не можете голосовать в опросах
    Вы не можете прикреплять файлы к сообщениям
    Вы можете скачивать файлы