Ссылка на приватное зеркало нашего сайта всего за 1$. Внимание количество ограничено!!!

2 сезон

iTunes

1 сезон

1

2 сезон

2 сезон

iTunes

1 сезон

RePack

30

Новинка

ВАЖНО

ИГРА 18+

pack

RePack

MK11
pack

Забери бонус

RePack

jed

!!Акция!!

Alien_Rage

RePack

fifa19

RePack

Assassins Creed: Odyssey

RePack

NEED FOR SPEED™ PAYBACK

4 сезон

9 сезон

Бесстыжие 9 сезон

Все сериалы

все сериалы на PB.wtf

RePack

FAR CRY 5
  

Оскар / Oscar (Эдуар Молинаро / Edouard Molinaro) [1967, Франция, комедия, WEB-DL 720p] Dub (Союзмультфильм) + MVO (Cinema Prestige) + MVO (SomeWax) + MVO (Светла) + MVO (РенТВ) + MVO (ТВЦ) + Sub Rus + Original Fre pb.wtf

Оскар через торрент pb.wtf

Размер: 3.06 GB | Добавлен: 7 лет 1 мес. назад | Торрент скачан:31 раз
Скачать  

26-09-2013 15:46 Оскар Скачать торрент  

Оскар / Oscar
Страна: Франция
Жанр: комедия
Год выпуска: 1967
Продолжительность: 01:23:08

Перевод 1: Профессиональный (дублированный) Союзмультфильм
Перевод 2: Профессиональный (многоголосый закадровый) Cinema Prestige
Перевод 3: Профессиональный (многоголосый закадровый) SomeWax
Перевод 4: Профессиональный (многоголосый закадровый) Светла
Перевод 5: Профессиональный (многоголосый закадровый) РенТВ
Перевод 6: Профессиональный (многоголосый закадровый) ТВЦ
Cубтитры: русские
Оригинальная аудиодорожка: французский

Режиссер: Эдуар Молинаро / Edouard Molinaro

В ролях: Луи де Фюнес, Клод Риш, Марио Давид, Джермейн Дельба, Клоди Жансак, Агата Натансон, Доминик Паж, Поль Пребуа, Сильвия Сорель, Филипп Валлори

Описание: Бертран Барнье — крупный промышленник, к которому с утра пораньше является его управляющий Кристиан. Он заявляет, что любит его дочь Колет, а после этого признается, что украл у предпринимателя кругленькую сумму. Вдобавок бизнесмен узнает, что его горничная увольняется и в одночасье становится баронессой.

Колет заявляет, что беременна от бывшего шофера по имени Оскар. Кроме того, выяснятся, что она вовсе не дочь Барнье и, не желая оставаться старой девой, готова выйти замуж за любого встречного…

К тому же, к этой истории примешиваются два черных чемодана, один из которых набит деньгами и драгоценностям, а другой женским нижним бельем… Как тут, от такого потока событий, происходящих в течение одного дня, «бедному» Бертрану не сойти с ума?!

Релиз от:
Источник: iTunes (France)

Тип релиза: WEB-DL 720p
Контейнер: MKV

Видео: 1280x544 at 24.000 fps (True24p), MPEG-4 AVC, ~4000 kbps avg
Аудио#1: Russian: 48 kHz, AC3, 2/0 (L,R) ch, ~192.00 kbps avg |Дубляж, Союзмультфильм|
Аудио#2: Russian: 48 kHz, AC3, 2/0 (L,R) ch, ~192.00 kbps avg |Многоголосый закадровый, Cinema Prestige|
Аудио#3: Russian: 48 kHz, AC3, 2/0 (L,R) ch, ~192.00 kbps avg |Многоголосый закадровый, SomeWax|
Аудио#4: Russian: 48 kHz, AC3, 2/0 (L,R) ch, ~192.00 kbps avg |Многоголосый закадровый, Светла|
Аудио#5: Russian: 48 kHz, AC3, 2/0 (L,R) ch, ~192.00 kbps avg |Многоголосый закадровый, РенТВ|
Аудио#6: Russian: 48 kHz, AC3, 2/0 (L,R) ch, ~192.00 kbps avg |Многоголосый закадровый, ТВЦ|
Аудио#7: French: 48 kHz, AAC, 2/0 (L,R) ch, ~160.00 kbps avg
General
Unique ID : 187137352406943365217719317403416671894 (0x8CC957D386C7388499F173D3544C3696)
Complete name : D:РелизыОскарOscar.1967.720p.WEB-DL.6xRus.Fre.Sub.HDCLUB.mkv
Format : Matroska
Format version : Version 4 / Version 2
File size : 3.06 GiB
Duration : 1h 23mn
Overall bit rate : 5 271 Kbps
Movie name : Oscar (1967)
Encoded date : UTC 2010-02-22 21:41:31
Writing application : mkvmerge v5.9.0 ('On The Loose') built on Dec 9 2012 15:37:01
Writing library : libebml v1.3.0 + libmatroska v1.4.0

Video
ID : 1
Format : AVC
Format/Info : Advanced Video Codec
Format profile : Main@L3.1
Format settings, CABAC : No
Format settings, ReFrames : 2 frames
Codec ID : V_MPEG4/ISO/AVC
Duration : 1h 23mn
Width : 1 280 pixels
Height : 544 pixels
Display aspect ratio : 2.35:1
Frame rate mode : Constant
Frame rate : 24.000 fps
Color space : YUV
Chroma subsampling : 4:2:0
Bit depth : 8 bits
Scan type : Progressive
Title : HDCLUB
Language : French
Default : Yes
Forced : No
Color primaries : BT.709
Transfer characteristics : BT.709
Matrix coefficients : BT.709

Audio #1
ID : 2
Format : AC-3
Format/Info : Audio Coding 3
Format profile : Dolby Digital
Mode extension : CM (complete main)
Format settings, Endianness : Big
Codec ID : A_AC3
Duration : 1h 23mn
Bit rate mode : Constant
Bit rate : 192 Kbps
Channel(s) : 2 channels
Channel positions : Front: L R
Sampling rate : 48.0 KHz
Bit depth : 16 bits
Compression mode : Lossy
Stream size : 114 MiB (4%)
Title : AC3 48kHz 2.0 192 kbps Dub
Language : Russian
Default : Yes
Forced : No

Audio #2
ID : 3
Format : AC-3
Format/Info : Audio Coding 3
Format profile : Dolby Digital
Mode extension : CM (complete main)
Format settings, Endianness : Big
Codec ID : A_AC3
Duration : 1h 23mn
Bit rate mode : Constant
Bit rate : 192 Kbps
Channel(s) : 2 channels
Channel positions : Front: L R
Sampling rate : 48.0 KHz
Bit depth : 16 bits
Compression mode : Lossy
Stream size : 114 MiB (4%)
Title : AC3 48kHz 2.0 192 kbps MVO Cinema Prestige
Language : Russian
Default : No
Forced : No

Audio #3
ID : 4
Format : AC-3
Format/Info : Audio Coding 3
Format profile : Dolby Digital
Mode extension : CM (complete main)
Format settings, Endianness : Big
Codec ID : A_AC3
Duration : 1h 23mn
Bit rate mode : Constant
Bit rate : 192 Kbps
Channel(s) : 2 channels
Channel positions : Front: L R
Sampling rate : 48.0 KHz
Bit depth : 16 bits
Compression mode : Lossy
Stream size : 114 MiB (4%)
Title : AC3 48kHz 2.0 192 kbps MVO SomeWax
Language : Russian
Default : No
Forced : No

Audio #4
ID : 5
Format : AC-3
Format/Info : Audio Coding 3
Format profile : Dolby Digital
Mode extension : CM (complete main)
Format settings, Endianness : Big
Codec ID : A_AC3
Duration : 1h 23mn
Bit rate mode : Constant
Bit rate : 192 Kbps
Channel(s) : 2 channels
Channel positions : Front: L R
Sampling rate : 48.0 KHz
Bit depth : 16 bits
Compression mode : Lossy
Stream size : 114 MiB (4%)
Title : AC3 48kHz 2.0 192 kbps MVO Svetla
Language : Russian
Default : No
Forced : No

Audio #5
ID : 6
Format : AC-3
Format/Info : Audio Coding 3
Format profile : Dolby Digital
Mode extension : CM (complete main)
Format settings, Endianness : Big
Codec ID : A_AC3
Duration : 1h 23mn
Bit rate mode : Constant
Bit rate : 192 Kbps
Channel(s) : 2 channels
Channel positions : Front: L R
Sampling rate : 48.0 KHz
Bit depth : 16 bits
Compression mode : Lossy
Stream size : 114 MiB (4%)
Title : AC3 48kHz 2.0 192 kbps MVO RenTV
Language : Russian
Default : No
Forced : No

Audio #6
ID : 7
Format : AC-3
Format/Info : Audio Coding 3
Format profile : Dolby Digital
Mode extension : CM (complete main)
Format settings, Endianness : Big
Codec ID : A_AC3
Duration : 1h 23mn
Bit rate mode : Constant
Bit rate : 192 Kbps
Channel(s) : 2 channels
Channel positions : Front: L R
Sampling rate : 48.0 KHz
Bit depth : 16 bits
Compression mode : Lossy
Stream size : 114 MiB (4%)
Title : AC3 48kHz 2.0 192 kbps MVO TVC
Language : Russian
Default : No
Forced : No

Audio #7
ID : 8
Format : AAC
Format/Info : Advanced Audio Codec
Format profile : LC
Codec ID : A_AAC
Duration : 1h 23mn
Channel(s) : 2 channels
Channel positions : Front: L R
Sampling rate : 48.0 KHz
Compression mode : Lossy
Title : AAC 2.0 VBR Original
Language : French
Default : No
Forced : No

Text
ID : 9
Format : UTF-8
Codec ID : S_TEXT/UTF8
Codec ID/Info : UTF-8 Plain Text
Title : Russian
Language : Russian
Default : No
Forced : No

Menu
00:00:00.000 : en:Chapitre 1
00:04:21.000 : en:Chapitre 2
00:09:50.000 : en:Chapitre 3
00:11:48.000 : en:Chapitre 4
00:16:18.000 : en:Chapitre 5
00:19:17.000 : en:Chapitre 6
00:23:26.000 : en:Chapitre 7
00:26:24.000 : en:Chapitre 8
00:33:19.000 : en:Chapitre 9
00:37:57.000 : en:Chapitre 10
00:42:52.000 : en:Chapitre 11
00:47:21.000 : en:Chapitre 12
00:54:10.000 : en:Chapitre 13
00:58:23.000 : en:Chapitre 14
01:02:41.000 : en:Chapitre 15
01:07:15.000 : en:Chapitre 16
01:15:44.000 : en:Chapitre 17
01:22:15.000 : en:Chapitre 18
http://multi-up.com/814871
pb.wtf



Скачать Оскар через торрент http://i57.fastpic.ru/big/2013/0925/bb/24c0335cf07366f8529797faf5d7a2bb.jpg Скачать фильм Оскар через торрент бесплантно в хорошем качестве Описание: Бертран Барнье — крупный промышленник, к которому с утра пораньше является его управляющий Кристиан. Он заявляет, что любит его ... 5 10 1
Info! Золотая раздача, скачанное не засчитывается.
Торрент: Зарегистрирован [2013-09-26 15:46] · скачан: 31 раз
Статус: √ проверено
Размер: 3.06 GB
Как cкачать? Как скачать Оскар через торрент | qTorrent

28-11-2019 20:33  

Отключить всю рекламу на сайте

    Дорогой пользователь! Огромная просьба, поблагодарите релизера, оцените раздачу и оставьте свои комментарий, если Вы скачали Оскар через торрент бесплатно! Внесите свою лепту в развитие PiratBit!
    Комментировать посты могут только пользователи прошедшие не сложную регистрацию
    Показать сообщения:    

    Оскар через торрент
    Скачать бесплатно Оскар
    Оскар скачать торрент
    Оскар смотреть онлайн
    Cкачать фильм Оскар бесплатно
    Оскар скачать торрент в хорошем качестве
    Оскар смотреть онлайн бесплатно в хорошем качестве


    Вы не можете начинать темы
    Вы не можете отвечать на сообщения
    Вы не можете редактировать свои сообщения
    Вы не можете удалять свои сообщения
    Вы не можете голосовать в опросах
    Вы не можете прикреплять файлы к сообщениям
    Вы можете скачивать файлы