Всегда рабочее зеркало просто перед .vidak.icu напиши любое слово или цифру, Пример http://4qe.vidak.icu

>

7.4

iTunes

7.4

2 сезон

9.4

1 сезон

1

7.4

2 сезон

7.2

iTunes

6.0

MVO

13

6.1

iTunes

8.3

Пиратка

30

ULTIMATE

pack

9.9

Лицензия

ВАЖНО

ИГРА 18+

pack

7.3

RePack

MK11

7.7

RePack

jed

7.8

RePack

fifa19

8.5

RePack

RDR2

RePack

NEED FOR SPEED™ PAYBACK

1 сезон

9 сезон

Бесстыжие 9 сезон

Все сериалы

все сериалы на PB.wtf

RePack

FAR CRY 5

Anonymous, доброе утро, мы катастрофически не успеваем собрать деньги на оплату серверов, помогите нам пожалуйста 5,10,15р., для нас важна любая помощь . В качестве благодарности мы отключим Вам всю рекламу на сайте (укажите свой ник в строку Ваше имя)!

×
  
Magnet ссылка

Сокровище нации / National Treasure (Джон Тёртелтауб / Jon Turteltaub) [2004, приключения, BDRip-AVC] [AVO] (А.Гаврилов) pb.wtf

Сокровище нации через торрент pb.wtf

Размер: 1016 MB | Добавлен: 8 лет 3 мес. назад | Торрент скачан:20 раз
Смотреть онлайн Сокровище нации | Скачать    Ребята, помогите собрать деньги на оплату серверов!!!

26-09-2013 16:08 Сокровище нации Скачать торрент  

Сокровище нации / National Treasure«The clues are right in front of your eyes»
Год выпуска: 2004
Страна: США
Жанр: приключения
Продолжительность: 02:11:00
Перевод: Авторский (одноголосный)[А.Гаврилов]
Cубтитры: русские, английские

Режиссер: Джон Тёртелтауб / Jon Turteltaub

В ролях: Николас Кейдж / Nicolas Cage, Дайан Крюгер / Diane Kruger, Джастин Барта / Justin Bartha, Шон Бин / Sean Bean, Джон Войт / Jon Voight, Харви Кейтель / Harvey Keitel, Кристофер Пламмер / Christopher Plummer

Описание: Современные охотники за сокровищами во главе с Беном Франклином Гейтсом узнают старинную легенду о сокровище, спрятанном еще отцами-основателями американского государства Джорджем Вашингтоном, Бенджамином Франклином и Томасом Джефферсоном.
Узнать тайну клада можно с помощью Декларации Независимости США, в которой зашифрована разгадка. Но помимо разгадывания изощренной головоломки, нашим героям предстоит сразиться с любителями легкой наживы, жаждущим погреть руки на достоянии республики…




Качество видео: BDRip-AVC [исх. BDRemux 1080p]
Формат видео: MKV
Видео кодек: AVC
Аудио кодек: AC3
Видео: V_MPEG4/ISO/AVC, 720x304 (2.35:1), 23,976 Кадр/сек, ~698 Кбит/сек avg, 0.133 бит/пикс
Аудио: 48 kHz, AC3 Dolby Digital, 3/2 (L,C,R,l,r) + LFE ch, ~384.00 kbps avg
E:INTERNETNational Treasure.BDRip-AVC.2004.[AVO](Gavrilov).mkv
General
Unique ID : 191864622111190912912721742147772809463 (0x9057C837A80613C68A06C633D5AD00F7)
Complete name : E:INTERNETNational Treasure.BDRip-AVC.2004.[AVO](Gavrilov).mkv
Format : Matroska
Format version : Version 2
File size : 1 016 MiB
Duration : 2h 11mn
Overall bit rate : 1 083 Kbps
Encoded date : UTC 2013-09-26 15:39:35
Writing application : mkvmerge v4.2.0 ('No Talking') сборка от Jul 28 2010 18:38:23
Writing library : libebml v1.0.0 + libmatroska v1.0.0
Video #1
ID : 1
Format : AVC
Format/Info : Advanced Video Codec
Format profile : High@L3.1
Format settings, CABAC : Yes
Format settings, ReFrames : 16 frames
Muxing mode : Header stripping
Codec ID : V_MPEG4/ISO/AVC
Duration : 2h 11mn
Bit rate : 698 Kbps
Width : 720 pixels
Height : 304 pixels
Display aspect ratio : 2.35:1
Frame rate : 23.976 fps
Color space : YUV
Chroma subsampling : 4:2:0
Bit depth : 8 bits
Scan type : Progressive
Bits/(Pixel*Frame) : 0.133
Stream size : 635 MiB (63%)
Title : National Treasure-BDRip-x264-2004-Rus(Dub)-4I70K
Writing library : x264 core 98 r1649 20cbe10
Encoding settings : cabac=1 / ref=16 / deblock=1:-1:-1 / analyse=0x3:0x133 / me=tesa / subme=10 / psy=1 / psy_rd=1.00:0.00 / mixed_ref=1 / me_range=32 / chroma_me=1 / trellis=2 / 8x8dct=1 / cqm=0 / deadzone=21,11 / fast_pskip=0 / chroma_qp_offset=-2 / threads=6 / sliced_threads=0 / nr=0 / decimate=0 / interlaced=0 / constrained_intra=0 / bframes=4 / b_pyramid=2 / b_adapt=2 / b_bias=0 / direct=3 / weightb=1 / weightp=2 / keyint=250 / keyint_min=25 / scenecut=40 / intra_refresh=0 / rc_lookahead=40 / rc=2pass / mbtree=1 / bitrate=698 / ratetol=1.0 / qcomp=0.60 / qpmin=10 / qpmax=51 / qpstep=4 / cplxblur=20.0 / qblur=0.5 / ip_ratio=1.40 / aq=1:1.00
Language : English
Audio #2
ID : 2
Format : AC-3
Format/Info : Audio Coding 3
Mode extension : CM (complete main)
Muxing mode : Header stripping
Codec ID : A_AC3
Duration : 2h 11mn
Bit rate mode : Constant
Bit rate : 384 Kbps
Channel(s) : 6 channels
Channel positions : Front: L C R, Side: L R, LFE
Sampling rate : 48.0 KHz
Bit depth : 16 bits
Compression mode : Lossy
Stream size : 360 MiB (35%)
Title : AVO Gavrilov
Language : Russian
Text #3
ID : 3
Format : UTF-8
Codec ID : S_TEXT/UTF8
Codec ID/Info : UTF-8 Plain Text
Title : Russian
Language : Russian
Text #4
ID : 4
Format : UTF-8
Codec ID : S_TEXT/UTF8
Codec ID/Info : UTF-8 Plain Text
Title : English
Language : English
Menu
00:00:00.054 : en:00:00:00.054
pb.wtf



Скачать Сокровище нации через торрент http://i26.fastpic.ru/big/2011/0730/34/9275f0cde69f8e2fe7d2f9cce0382234.jpg Скачать, смотреть онлайн Сокровище нации бесплантно в хорошем качестве Описание: Современные охотники за сокровищами во главе с Беном Франклином Гейтсом узнают старинную легенду о сокровище, спрятанном еще ... 10 10 5
Info! Золотая раздача, скачанное не засчитывается.
Торрент: Зарегистрирован [2013-09-26 16:08] · скачан: 20 раз
Статус: √ проверено
Размер: 1016 MB
Как cкачать? Как скачать Сокровище нации через торрент | UTorrent

% Раздел Тема Автор DL S | L
Фильмы (Blu-ray, BD-Remux, HDDVD) [ 29.68 GB ] Сокровище нации / National Treasure [2004 BDRemux 1080p] DUB + 2xDVO + 2xAVO sheker187 Скачать
1 | 1
Сборники и Сиквелы (48-60 fps) [ 7.58 GB ] Сокровище нации: Дилогия / National Treasure: Dilogy [2004-2007 BDRip-AVC 60fps Dub] от R.G. HD-Films Tiberiumsun69 Скачать
7 | 0
Фильмы 2001-2005 [ 2.9 GB ] Сокровище нации / National Treasure [2004 BDRip] DUB _KaisiK_ Скачать
1 | 0
Фильмы 2006-2008 [ 2.92 GB ] Сокровище нации: Книга Тайн / National Treasure: Book of Secrets [2007 BDRip] DUB _KaisiK_ Скачать
1 | 0
Фильмы 2001-2005 [ 2.18 GB ] Сокровище нации / National Treasure [2004 BDRip] chaga2009 Скачать
1 | 0
Фильмы [HD 720p, 1080p] (Хороший звук DUB, MVO) [ 7.76 GB ] Сокровище нации 2: Книга Тайн / National Treasure 2: Book of Secrets [2007 BDRip 1080p + Оригинал] Бумер Скачать
1 | 0
Фильмы [HD 720p, 1080p] (Хороший звук DUB, MVO) [ 7.76 GB ] Сокровище нации / National Treasure [2004 BDRip 1080p + Оригинал] Бумер Скачать
1 | 0

28-11-2019 20:33  

Отключить всю рекламу на сайте

    Дорогой пользователь! Огромная просьба, поблагодарите релизера, оцените раздачу и оставьте свои комментарий, если Вы скачали Сокровище нации через торрент бесплатно!
    Комментировать посты могут только пользователи прошедшие не сложную регистрацию
    Показать сообщения:    

    Сокровище нации через торрент
    Скачать бесплатно Сокровище нации
    Сокровище нации скачать торрент
    Сокровище нации смотреть онлайн
    Cкачать фильм Сокровище нации бесплатно
    Сокровище нации скачать торрент в хорошем качестве
    Сокровище нации смотреть онлайн бесплатно в хорошем качестве


    Вы не можете начинать темы
    Вы не можете отвечать на сообщения
    Вы не можете редактировать свои сообщения
    Вы не можете удалять свои сообщения
    Вы не можете голосовать в опросах
    Вы не можете прикреплять файлы к сообщениям
    Вы можете скачивать файлы