Ссылка на приватное зеркало нашего сайта всего за 1$. Внимание количество ограничено!!!

2 сезон

iTunes

1 сезон

1

2 сезон

2 сезон

iTunes

1 сезон

RePack

30

Ultimate

ВАЖНО

ИГРА 18+

pack

RePack

MK11
pack

Забери бонус

RePack

jed

!!Акция!!

Alien_Rage

RePack

fifa19

RePack

Assassins Creed: Odyssey

RePack

NEED FOR SPEED™ PAYBACK

4 сезон

9 сезон

Бесстыжие 9 сезон

Все сериалы

все сериалы на PB.wtf

RePack

FAR CRY 5
  

Жажда скорости / Need for Speed (Скотт Во) [2014 г., боевик, HDRip 1080p, Любительский одноголосый] pb.wtf

Жажда скорости через торрент pb.wtf

Размер: 33 MB | Добавлен: 7 лет 2 мес. назад | Торрент скачан:57 раз
Скачать  

27-09-2013 04:43 Жажда скорости Скачать торрент  

Жажда скорости / Need for SpeedГод выпуска: 2014
Страна: США
Жанр: боевик,
Продолжительность: 00:01:34
Перевод: Любительский одноголосый
Субтитры: Нет

Режиссер: Скотт Во

В ролях: Дакота Джонсон, Аарон Пол, Майкл Китон, Имоджен Путс, Доминик Купер, Сэр Маджор, Рами Малек, Ник Чинланд, Скотт Мескади, Рамон Родригес,

Описание: Отсидев в тюрьме за преступление, которого он не совершал, автомеханик и уличный гонщик Тоби выходит на свободу, и полон решимости поквитаться с тем, кто его подставил.

Доп. информация: премьера (мир) 13 марта 2014
премьера (РФ) 13 марта 2014, «WDSSPR»
релиз на Blu-Ray 3 июня 2014, «Уолт Дисней Компани СНГ»
релиз на DVD 3 июня 2014, «Уолт Дисней Компани СНГ»

Качество: HDRip 1080p
Формат: MPEG-4
Видео кодек: AVC
Аудио кодек: AAC
Видео: 2799 Кбит/сек, 1920*800 (2,40:1), в 23,976 кадра/сек, AVC
Аудио: 149 Кбит/сек, 44,1 КГц, 2 канала, AAC (LC)
Общее
Кол-во : 279
Кол-во потоков такого типа : 1
Тип потока : General
Тип потока : Общее
Идентификатор типа потока : 0
Inform : MPEG-4 (Base Media): 33,1 Мбайт, 1 м. 33 с.
Кол-во видеопотоков : 1
Кол-во аудиопотоков : 1
Video_Format_List : AVC
Video_Format_WithHint_List : AVC
Видеокодеки : AVC
Audio_Format_List : AAC
Audio_Format_WithHint_List : AAC
Аудиокодеки : AAC LC
Полное имя : D:ФильмыЖажда.mp4
Имя папки : D:Фильмы
Имя файла : Жажда
Расширение : mp4
Формат : MPEG-4
Формат : MPEG-4
Формат/Используется в : mp4 m4v m4a m4b m4p 3gpp 3gp 3gpp2 3g2 k3g jpm jpx mqv ismv isma f4v
Коммерческое название : MPEG-4
Профиль формата : Base Media
Интернет-тип носителя : video/mp4
Идентификатор кодека : isom
Идентификатор кодека/Ссылка : http://www.apple.com/quicktime/download/standalone.html
Кодек : MPEG-4
Кодек : MPEG-4
Кодек/Используется в : mp4 m4v m4a m4b m4p 3gpp 3gp 3gpp2 3g2 k3g jpm jpx mqv ismv isma f4v
Размер файла : 34671102
Размер файла : 33,1 Мбайт
Размер файла : 33 Мбайт
Размер файла : 33 Мбайт
Размер файла : 33,1 Мбайт
Размер файла : 33,06 Мбайт
Продолжительность : 93993
Продолжительность : 1 м. 33 с.
Продолжительность : 1 м. 33 с. 993 мс.
Продолжительность : 1 м. 33 с.
Продолжительность : 00:01:33.993
Режим общего битрейта : VBR
Режим общего битрейта : Переменный
Общий поток : 2950952
Общий поток : 2951 Кбит/сек
Размер потока : 29597
Размер потока : 28,9 Кбайт (0%)
Размер потока : 29 Кбайт
Размер потока : 29 Кбайт
Размер потока : 28,9 Кбайт
Размер потока : 28,90 Кбайт
Размер потока : 28,9 Кбайт (0%)
Пропорции потока : 0.00085
HeaderSize : 29490
DataSize : 34641513
FooterSize : 99
IsStreamable : Yes
Дата кодирования : UTC 2013-09-25 11:24:23
Дата пометки : UTC 2013-09-25 11:24:23
Дата файла : UTC 2013-09-27 04:17:32.586
Дата файла (местная) : 2013-09-27 11:17:32.586
Дата изменения файла : UTC 2013-09-27 04:20:39.779
Дата изменения файла (местная) : 2013-09-27 11:20:39.779
Программа кодирования : Yamb 2.1.0.0 [http://yamb.unite-video.com]

Видео
Кол-во : 248
Кол-во потоков такого типа : 1
Тип потока : Video
Тип потока : Видео
Идентификатор типа потока : 0
StreamOrder : 0
Inform : 2799 Кбит/сек, 1920*800 (2,40:1), в 23,976 кадра/сек, AVC (High@L4.0) (CABAC / 1 Ref Frames)
Идентификатор : 1
Идентификатор : 1
Формат : AVC
Формат/Информация : Advanced Video Codec
Формат/Ссылка : http://developers.videolan.org/x264.html
Коммерческое название : AVC
Профиль формата : High@L4.0
Настройки формата : CABAC / 1 Ref Frames
Параметр CABAC формата : Yes
Параметр CABAC формата : Да
Параметр ReFrames формата : 1
Параметр ReFrames формата : 1 кадр
Интернет-тип носителя : video/H264
Идентификатор кодека : avc1
Идентификатор кодека/Информация : Advanced Video Coding
Идентификатор кодека/Ссылка : http://www.apple.com/quicktime/download/standalone.html
Кодек : AVC
Кодек : AVC
Кодек/Семейство : AVC
Кодек/Информация : Advanced Video Codec
Кодек/Ссылка : http://developers.videolan.org/x264.html
Кодек/CC : avc1
Профиль кодека : High@L4.0
Настройки кодека : CABAC / 1 Ref Frames
Параметр CABAC кодека : Yes
Codec_Settings_RefFrames : 1
Продолжительность : 93990
Продолжительность : 1 м. 33 с.
Продолжительность : 1 м. 33 с. 990 мс.
Продолжительность : 1 м. 33 с.
Продолжительность : 00:01:33.990
Продолжительность оригинала : 94011
Продолжительность оригинала : 1 м. 34 с.
Продолжительность оригинала : 1 м. 34 с. 11 мс.
Продолжительность оригинала : 1 м. 34 с.
Продолжительность оригинала : 00:01:34.011
Битрейт : 2799131
Битрейт : 2799 Кбит/сек
Максимальный битрейт : 9787688
Максимальный битрейт : 9788 Кбит/сек
Ширина : 1920
Ширина : 1920 пикселей
Высота : 800
Высота : 800 пикселей
Пропорции пикселя : 1.000
Соотношение сторон : 2.400
Соотношение сторон : 2,40:1
Rotation : 0.000
Режим частоты кадров : CFR
Режим частоты кадров : Постоянный
FrameRate_Mode_Original : VFR
Частота кадров : 23.976
Частота кадров : 23,976 кадра/сек
Счётчик кадров : 2254
Количество кадров оригинала : 2254
Разрешение : 8
Разрешение : 8 бит
Колориметрия : 4:2:0
Цветовое пространство : YUV
Субдискретизация насыщенности : 4:2:0
Битовая глубина : 8
Битовая глубина : 8 бит
Тип развёртки : Progressive
Тип развёртки : Прогрессивная
Переплетение : PPF
Переплетение : Прогрессивная
Бит/(Пиксели*Кадры) : 0.076
Задержка : 0
Задержка : 00:00:00.000
Задержка в оригинале : Container
Задержка в оригинале : Контейнер
Размер потока : 32893531
Размер потока : 31,4 Мбайт (95%)
Размер потока : 31 Мбайт
Размер потока : 31 Мбайт
Размер потока : 31,4 Мбайт
Размер потока : 31,37 Мбайт
Размер потока : 31,4 Мбайт (95%)
Пропорции потока : 0.94873
Размер потока оригинала : 32893531
Размер потока оригинала : 31,4 Мбайт (95%)
Размер потока оригинала : 31 Мбайт
Размер потока оригинала : 31 Мбайт
Размер потока оригинала : 31,4 Мбайт
Размер потока оригинала : 31,37 Мбайт
Размер потока оригинала : 31,4 Мбайт (95%)
Source_StreamSize_Proportion : 0.94873
Дата пометки : UTC 2013-09-25 11:24:23

Аудио
Кол-во : 217
Кол-во потоков такого типа : 1
Тип потока : Audio
Тип потока : Аудио
Идентификатор типа потока : 0
StreamOrder : 1
Inform : 149 Кбит/сек, 44,1 КГц, 2 канала, AAC (LC)
Идентификатор : 2
Идентификатор : 2
Формат : AAC
Формат/Информация : Advanced Audio Codec
Коммерческое название : AAC
Профиль формата : LC
Идентификатор кодека : 40
Кодек : AAC LC
Кодек : AAC LC
Кодек/Семейство : AAC
Кодек/CC : 40
Продолжительность : 93993
Продолжительность : 1 м. 33 с.
Продолжительность : 1 м. 33 с. 993 мс.
Продолжительность : 1 м. 33 с.
Продолжительность : 00:01:33.993
Вид битрейта : VBR
Вид битрейта : Переменный
Битрейт : 148768
Битрейт : 149 Кбит/сек
Максимальный битрейт : 214568
Максимальный битрейт : 215 Кбит/сек
Каналы : 2
Каналы : 2 канала
Расположение каналов : Front: L R
Расположение каналов : 2/0/0
Частота : 44100
Частота : 44,1 КГц
Количество образцов : 4145091
Счётчик кадров : 4048
Метод сжатия : Lossy
Метод сжатия : С потерями
Задержка : 0
Задержка : 00:00:00.000
Задержка в оригинале : Container
Задержка в оригинале : Контейнер
Задержка видео : 0
Задержка видео : 0
Размер потока : 1747974
Размер потока : 1,67 Мбайт (5%)
Размер потока : 2 Мбайт
Размер потока : 1,7 Мбайт
Размер потока : 1,67 Мбайт
Размер потока : 1,667 Мбайт
Размер потока : 1,67 Мбайт (5%)
Пропорции потока : 0.05042
Дата кодирования : UTC 2013-09-25 11:24:23
Дата пометки

pb.wtf



Скачать Жажда скорости через торрент http://i017.radikal.ru/1309/ad/ba1f366eb805.jpg Скачать фильм Жажда скорости через торрент бесплантно в хорошем качестве Описание: Отсидев в тюрьме за преступление, которого он не совершал, автомеханик и уличный гонщик Тоби выходит на свободу, и полон ... 10 10 9
Info! Золотая раздача, скачанное не засчитывается.
Торрент: Зарегистрирован [2013-09-27 04:43] · скачан: 57 раз
Статус: T временная
Размер: 33 MB
Как cкачать? Как скачать Жажда скорости через торрент | qTorrent

% Раздел Тема Автор DL S | L
Фильмы [HD 720p, 1080p] (Хороший звук DUB, MVO) [ 4.88 GB ] Need for Speed: Жажда скорости / Need for Speed [2014 BDRip 1080p HEVC ] Мичман37 Скачать
1 | 0
House (mp3) [ 1.13 GB ] VA - Need For Speed - Жажда Скорости 2016 / MP3 / 320 kbps / Dance Club Electro House bober100 Скачать
1 | 0
Фильмы 2014 [DVDrip, WEB-DLRip, HDrip] [ 1.46 GB ] Need for Speed: Жажда скорости / Need for Speed [2014 BDRip-AVC] DUB potroks Скачать
1 | 0
Фильмы 2014 [DVDrip, WEB-DLRip, HDrip] [ 2.18 GB ] Жажда скорости / Need for Speed [2014 HDRip-AVC [ ] От R.G. PiratFilms White Smoke Скачать
1 | 0
3D Видео (48-60 fps) [ 15.79 GB ] Need for Speed: Жажда скорости / Need for Speed [2014 Филиппины Ирландия 3D BDRip 1080p / 60 FPSГоризонтальная анаморфная стереопара ] Tiberiumsun69 Скачать
1 | 0
3D Фильмы [ 16.15 GB ] Need for Speed: Жажда скорости 3Д / Need for Speed 3D [2014 BDrip 1080p] OverUnder / Вертикальная стереопара serega768 Скачать
1 | 0
Фильмы (Blu-ray, BD-Remux, HDDVD) [ 32.5 GB ] Жажда скорости / Need for Speed [2014 BD-Remux ] Бумер Скачать
1 | 0

28-11-2019 20:33  

Отключить всю рекламу на сайте

27-09-2013 06:50 Жажда скорости Скачать торрент  

Нихеррра, уже 2014 года фильмы, просто супер трекер))))pb.wtf



27-09-2013 12:04 Жажда скорости Скачать торрент  

вообще то это трейлер фильма!!!!!!!!!pb.wtf



    Дорогой пользователь! Огромная просьба, поблагодарите релизера, оцените раздачу и оставьте свои комментарий, если Вы скачали Жажда скорости через торрент бесплатно! Внесите свою лепту в развитие PiratBit!
    Комментировать посты могут только пользователи прошедшие не сложную регистрацию
    Показать сообщения:    

    Жажда скорости через торрент
    Скачать бесплатно Жажда скорости
    Жажда скорости скачать торрент
    Жажда скорости смотреть онлайн
    Cкачать фильм Жажда скорости бесплатно
    Жажда скорости скачать торрент в хорошем качестве
    Жажда скорости смотреть онлайн бесплатно в хорошем качестве


    Вы не можете начинать темы
    Вы не можете отвечать на сообщения
    Вы не можете редактировать свои сообщения
    Вы не можете удалять свои сообщения
    Вы не можете голосовать в опросах
    Вы не можете прикреплять файлы к сообщениям
    Вы можете скачивать файлы