Ссылка на приватное зеркало всего за 1$. Внимание количество ограничено!!!

iTunes

iTunes

iTunes

1

iTunes

iTunes

iTunes

WEBRip

iTunes

30
pack

$ от Little Big

ВАЖНО

!!Акция!!

Alien_RageХит недели

RePack

Resident Evil 21

ИГРА 18+

pack

RePack

jed

!!Акция!!

Alien_Rage

RePack

fifa19

RePack

Assassins Creed: Odyssey

RePack

NEED FOR SPEED™ PAYBACK

4 сезон

9 сезон

Бесстыжие 9 сезон

Все сериалы

все сериалы на PB.wtf

RePack

FAR CRY 5
  

Разжалованный (2009) (Владимир Тумаев) [2009 г., драма, военный, DVDRip] pb.wtf

Разжалованный через торрент pb.wtf

Размер: 1.37 GB | Добавлен: 6 лет 10 мес. назад | Торрент скачан:270 раз
Скачать  

27-09-2013 11:39 Разжалованный Скачать торрент  

Разжалованный (2009)Год выпуска: 2009
Страна: Россия
Жанр: драма, военный,
Продолжительность: 01:32:15
Субтитры: нет

Режиссер: Владимир Тумаев
Продюссер: Ольга Манеева
Сценарий: Наталия Портнова

Премьера в мире: 21 июня 2009



В ролях: Александр Михайлов, Никита Тезин, Филипп Бажин, Ольга Лапшина, Марина Куделинская, Андрей Межулис, Денис Карасев, Михаил Солодко, Иван Мамонов, Николай Козак...,

Описание: Лейтенанта, отказавшегося штурмовать высотку, решено разжаловать и отправить в тыл, где его дело рассмотрит военный трибунал. В штаб дивизии бывшего командира конвоируют лейтенант комендантской роты и рядовой боец, в прошлом командир бригады, приговоренный к расстрелу. Вместо штаба, передислоцированного ближе к линии фронта, они выходят к госпиталю с оставленными тяжелоранеными бойцами, размещенному в полуразрушенной церкви. Очень скоро возле того же госпиталя оказываются прорвавшиеся из окружения немцы.
Все мы привыкли видеть фильмы о войне как поле боя. Этот фильм не из этого числа. Судьбы людей, такие разные и переплетающие в водовороте этой страшной трагедии мирового масштаба, показаны так, что поневоле думаешь, как мы все забыли о том, как каждый настоящий русский человек отдавал себя полностью этой войне, желая только одного — победы.
Описание того, как тяжело и страшно было жить в то время и хотя бы просто не сойти ума… Раскрыты грани понимания человеческого морального и нравственного «нормально». Как стирались эти границы и во всеобщем хаосе каждая человеческая судьба того времени была трагедией. Где правда, как ее искать и ради чего жить? Поневоле задумываешься над этими вечными вопросами.
Вечная память нашим дедам и прадедам.
10 из 10
Качество: DVDRip
Формат: AVI
Видео кодек: XviD
Аудио кодек: AC3
Видео: XviD, 720x416, 25fps, 1920 kbps
Аудио: Dolby AC3 48000Hz stereo 192kbps
Язык: Русский
Перевод: оригинал





General
Complete name : E:ФильмыДля РаздачРазжалованный2009.XviD.DVDRip.avi
Format : AVI
Format/Info : Audio Video Interleave
File size : 1.37 GiB
Duration : 1h 32mn
Overall bit rate : 2 119 Kbps
Writing application : VirtualDubMod 1.5.4.1 (build 2178/release) VirtualDubMod build 2178/release

Video
ID : 0
Format : MPEG-4 Visual
Format profile : Streaming Video@L1
Format settings, BVOP : Yes
Format settings, QPel : No
Format settings, GMC : No warppoints
Format settings, Matrix : Custom
Codec ID : XVID
Codec ID/Hint : XviD
Duration : 1h 32mn
Bit rate : 1 920 Kbps
Width : 720 pixels
Height : 416 pixels
Display aspect ratio : 16/9
Frame rate : 25.000 fps
Resolution : 24 bits
Colorimetry : 4:2:0
Scan type : Progressive
Bits/(Pixel*Frame) : 0.256
Stream size : 1.24 GiB (91%)
Writing library : XviD 1.2.1 (UTC 2008-12-04)

Audio
ID : 1
Format : AC-3
Format/Info : Audio Coding 3
Codec ID : 2000
Duration : 1h 32mn
Bit rate mode : Constant
Bit rate : 192 Kbps
Channel(s) : 2 channels
Channel positions : L R
Sampling rate : 48.0 KHz
Stream size : 127 MiB (9%)
Alignment : Split accross interleaves
Interleave, duration : 96 ms (2.40 video frames)
Interleave, preload duration : 96 ms
Language : Не определен

[/code]

pb.wtf



Скачать Разжалованный через торрент http://pic.kartinco.top/images/4/tu7ms.jpg Скачать фильм Разжалованный через торрент бесплантно в хорошем качестве Описание: Лейтенанта, отказавшегося штурмовать высотку, решено разжаловать и отправить в тыл, где его дело рассмотрит военный трибунал. В ... 9.9 10 14
Info! Золотая раздача, скачанное не засчитывается.
Торрент: Зарегистрирован [2013-09-27 11:39] · скачан: 270 раз
Статус: √ проверено
Размер: 1.37 GB
Как cкачать? Как скачать Разжалованный через торрент | qTorrent

% Раздел Тема Автор DL S | L
Наши фильмы, до 2010 [ 716 MB ] Разжалованный  [2009 военный] aspace Скачать
1 | 0

28-11-2019 20:33  

Отключить всю рекламу на сайте

27-09-2013 12:08 Разжалованный Скачать торрент  

трейлер и есть весь фильм?pb.wtf



27-09-2013 17:15 Разжалованный Скачать торрент  

Хороший фильм!pb.wtf



27-09-2013 18:13 Разжалованный Скачать торрент  

Нихренна себе трейлер pb.wtf



27-09-2013 20:26 Разжалованный Скачать торрент  

Мощный трейлер! И фильм качать не нужно pb.wtf



    Дорогой пользователь! Огромная просьба, поблагодарите релизера, оцените раздачу и оставьте свои комментарий, если Вы скачали Разжалованный через торрент бесплатно! Внесите свою лепту в развитие PiratBit!
    Комментировать посты могут только пользователи прошедшие не сложную регистрацию
    Показать сообщения:    

    Разжалованный через торрент
    Скачать бесплатно Разжалованный
    Разжалованный скачать торрент
    Разжалованный смотреть онлайн
    Cкачать фильм Разжалованный бесплатно
    Разжалованный скачать торрент в хорошем качестве
    Разжалованный смотреть онлайн бесплатно в хорошем качестве


    Вы не можете начинать темы
    Вы не можете отвечать на сообщения
    Вы не можете редактировать свои сообщения
    Вы не можете удалять свои сообщения
    Вы не можете голосовать в опросах
    Вы не можете прикреплять файлы к сообщениям
    Вы можете скачивать файлы