2 сезон

iTunes

MVO

1

2 сезон

iTunes

iTunes

1 сезон

RePack

30

Новинка

ВАЖНО

ИГРА 18+

pack

RePack

MK11
pack

Легкие деньги

RePack

jed

RePack

fifa19

RePack

RDR2

RePack

NEED FOR SPEED™ PAYBACK

4 сезон

9 сезон

Бесстыжие 9 сезон

Все сериалы

все сериалы на PB.wtf

RePack

FAR CRY 5

Anonymous, добрый вечер, мы не успеваем собрать деньги на оплату серверов за декабрь и январь, помогите нам пожалуйста в это трудное время. В качестве благодарности мы отключим Вам всю рекламу на сайте (укажите свой ник в строку Ваше имя)!

×
  
Magnet ссылка

Мальчишник: Часть III / The Hangover Part III (Тодд Филлипс) [2013, Комедия, HDRip] AVO [Д. Пучков aka Гоблин] [Лицензия ] pb.wtf

Мальчишник: Часть III через торрент pb.wtf

Размер: 1.46 GB | Добавлен: 7 лет 3 мес. назад | Торрент скачан:461 раз
Скачать  

27-09-2013 13:38 Мальчишник: Часть III Скачать торрент  


Мальчишник: Часть III / The Hangover Part III

«Вот это конец»

  • Год выпуска:2013
  • Страна:США
  • Жанр:комедия

  • Продолжительность: 01:40:08
  • Перевод:Авторский одноголосный (Гоблин) Пучков [Лицензия]

  • Субтитры: Нет
    • Режиссер:Тодд Филлипс / Todd Phillips

  • В ролях:Брэдли Купер (Phil), Эд Хелмс (Stu), Зак Галифианакис (Alan), Кен Жонг (Mr. Chow), Джон Гудман (Marshall), Джастин Барта (Doug), Джеффри Тэмбор (Sid), Мелисса МакКарти (Cassie), Хэзер Грэм (Jade), Джейми Чунг (Lauren), Майк Эппс (Black Doug), Саша Баррези (Tracy)
    • Описание:
      В этот раз никакой свадьбы. Никакого мальчишника. Казалось бы, что могло пойти не так? Но когда Волчья стая оказывается на дороге, все ставки снимаются.

    Бюджет:$103 000 000 / Мировая премьера:20 мая 2013
    • Качество:HDRip
    • Формат:AVI
    • Видео кодек: XviD
    • Аудио кодек:AC3
    • Видео: XviD, 720x304 (2.35:1), 1690 kbps, 23,976 fps, 0,322 bpp
    • Аудио: AC3 / 5.1 / 48 kHz / 384 kbps / 16 bit

    • Шон Пенн и Роберт Дауни-мл. рассматривались на роль, которая в итоге досталась Джону Гудману.
    • Ближе к концу фильма, когда «волчья стая» возвращается к микроавтобусу, на заднем плане виден рекламный щит с Эдди (владелец свадебной часовни из первого фильма).
    • В ломбарде Кэсси откусывает кусок леденца и жует его. В следующем кадре леденец выглядит нетронутым.
    • Ближе к концу фильма, после того как стреляют по багажнику лимузина, герои садятся в него и едут дальше, но при этом на багажнике не видно пулевых отверстий.
    General
    Complete name : D:ТорентыMaL4ishnik.3.2013.Goblin.HDRip.1.46Gb.avi
    Format : AVI
    Format/Info : Audio Video Interleave
    File size : 1.46 GiB
    Duration : 1h 40mn
    Overall bit rate : 2 084 Kbps
    Writing application : VirtualDubMod 1.5.10.3 | www.virtualdub-fr.org || (build 2550/release)
    Writing library : VirtualDubMod build 2550/release

    Video
    ID : 0
    Format : MPEG-4 Visual
    Format profile : Advanced Simple@L5
    Format settings, BVOP : 2
    Format settings, QPel : No
    Format settings, GMC : No warppoints
    Format settings, Matrix : Custom
    Codec ID : XVID
    Codec ID/Hint : XviD
    Duration : 1h 40mn
    Bit rate : 1 691 Kbps
    Width : 720 pixels
    Height : 304 pixels
    Display aspect ratio : 2.35:1
    Frame rate : 23.976 fps
    Color space : YUV
    Chroma subsampling : 4:2:0
    Bit depth : 8 bits
    Scan type : Progressive
    Compression mode : Lossy
    Bits/(Pixel*Frame) : 0.322
    Stream size : 1.18 GiB (81%)
    Writing library : XviD 1.2.1 (UTC 2008-12-04)

    Audio
    ID : 1
    Format : AC-3
    Format/Info : Audio Coding 3
    Mode extension : CM (complete main)
    Codec ID : 2000
    Duration : 1h 40mn
    Bit rate mode : Constant
    Bit rate : 384 Kbps
    Channel(s) : 6 channels
    Channel positions : Front: L C R, Side: L R, LFE
    Sampling rate : 48.0 KHz
    Bit depth : 16 bits
    Compression mode : Lossy
    Stream size : 275 MiB (18%)
    Alignment : Split accross interleaves
    Interleave, duration : 42 ms (1.00 video frame)
    Interleave, preload duration : 500 ms

    © Оформление by Vetal
    pb.wtf



  • Скачать Мальчишник: Часть III через торрент http://i58.fastpic.ru/big/2013/0922/31/4683bcd4960801b02604b79f43d30631.png Скачать фильм Мальчишник: Часть III через торрент бесплантно в хорошем качестве Описание:В этот раз никакой свадьбы. Никакого мальчишника. Казалось бы, что могло пойти не так? Но когда Волчья стая оказывается на дороге, ... 9.6 10 19
    Info! Золотая раздача, скачанное не засчитывается.
    Торрент: Зарегистрирован [2013-09-27 13:38] · скачан: 461 раз
    Статус: √ проверено
    Размер: 1.46 GB
    Как cкачать? Как скачать Мальчишник: Часть III через торрент | UTorrent

    % Раздел Тема Автор DL S | L
    Ultra HD (UHD: 2K, 4K, 8K) — видео сверхвысокой чёткости [ 19.6 GB ] Мальчишник: Часть III / The Hangover Part III [2013 UHD WEBRip 2160p] AVO+DUB bober100 Скачать
    1 | 0
    Фильмы 2013 [DVDrip, WEB-DLRip, HDrip] [ 1.46 GB ] Мальчишник: Часть III / The Hangover Part III [2013 HDRip [Цифровая / Russia] Ворон Скачать
    1 | 0
    Фильмы 2013 [DVDrip, WEB-DLRip, HDrip] [ 2.06 GB ] Мальчишник: Часть III / The Hangover Part III [2013 BDRip ] coc900 Скачать
    1 | 0
    Фильмы 2013 [DVDrip, WEB-DLRip, HDrip] [ 1.46 GB ] Мальчишник: Часть III / The Hangover Part III [2013 BDRip-AVC] Dub () sokol_ok Скачать
    1 | 0
    Фильмы 2013 [DVDrip, WEB-DLRip, HDrip] [ 2.2 GB ] Мальчишник: Часть III / The Hangover Part III [2013 BDRip-AVC] Dub + AVO + Eng + Sub sokol_ok Скачать
    2 | 0
    Фильмы (DVD фильмы) [ 5.54 GB ] Мальчишник: Часть III / The Hangover Part III [2013 DVD9] R5 voovaz Скачать
    1 | 0
    Фильмы 2013 [DVDrip, WEB-DLRip, HDrip] [ 1.46 GB ] Мальчишник: Часть III / The Hangover Part III [2013 BDRip-AVC Russia] potroks Скачать
    1 | 0

    28-11-2019 20:33  

    Отключить всю рекламу на сайте

    27-09-2013 18:58 Мальчишник: Часть III Скачать торрент  

    Дождался-таки, огромное спасибо.pb.wtf



      Дорогой пользователь! Огромная просьба, поблагодарите релизера, оцените раздачу и оставьте свои комментарий, если Вы скачали Мальчишник: Часть III через торрент бесплатно! Внесите свою лепту в развитие PiratBit!
      Комментировать посты могут только пользователи прошедшие не сложную регистрацию
      Показать сообщения:    

      Мальчишник: Часть III через торрент
      Скачать бесплатно Мальчишник: Часть III
      Мальчишник: Часть III скачать торрент
      Мальчишник: Часть III смотреть онлайн
      Cкачать фильм Мальчишник: Часть III бесплатно
      Мальчишник: Часть III скачать торрент в хорошем качестве
      Мальчишник: Часть III смотреть онлайн бесплатно в хорошем качестве


      Вы не можете начинать темы
      Вы не можете отвечать на сообщения
      Вы не можете редактировать свои сообщения
      Вы не можете удалять свои сообщения
      Вы не можете голосовать в опросах
      Вы не можете прикреплять файлы к сообщениям
      Вы можете скачивать файлы