Ссылка на приватное зеркало нашего сайта всего за 1$. Внимание количество ограничено!!!

2 сезон

iTunes

1 сезон

1

2 сезон

2 сезон

iTunes

1 сезон

RePack

30

Ultimate

ВАЖНО

ИГРА 18+

pack

RePack

MK11
pack

Забери бонус

RePack

jed

!!Акция!!

Alien_Rage

RePack

fifa19

RePack

Assassins Creed: Odyssey

RePack

NEED FOR SPEED™ PAYBACK

4 сезон

9 сезон

Бесстыжие 9 сезон

Все сериалы

все сериалы на PB.wtf

RePack

FAR CRY 5
  

Эффект колибри / Hummingbird (Стивен Найт) [2013 г., Боевик, триллер, BD-Remux, (1080р) Дубляж + Оригинал] pb.wtf

Эффект колибри через торрент pb.wtf

Размер: 18.07 GB | Добавлен: 7 лет 1 мес. назад | Торрент скачан:107 раз
Скачать  

27-09-2013 15:24 Эффект колибри Скачать торрент  

Эффект колибри / Hummingbird
Год выпуска: 2013
Страна: США
Жанр: Боевик, триллер,
Продолжительность: 01:40:02
Перевод: Дубляж + Оригинал+дубляж
Субтитры: английские

Режиссер: Стивен Найт

В ролях: Джейсон Стэйтем, Агата Бузек, Вики МакКлюр, Бенедикт Вонг, Ли Асквит-Коу, Ли Николас Харрис, Крис Коулин, Санти Скинелли, Дэвид Брэдли (III), Шиван Хьюлетт,

Описание: Джоуи Джонс, бывший спецназовец, пытается избавиться от мучительных воспоминаний в лондонских трущобах. Чтобы восстановить справедливость в этом перевернутом мире, он выдает себя за другого человека и превращается в беспощадного ангела мести, который готов беспощадно расправляться с преступниками всех мастей. Изменить его сможет только неожиданная любовь…

Качество: BD-Remux (1080р)
Формат: MKV
Видео кодек: AVC
Аудио кодек: AC3/DTS
Видео: (1920 x 1080) 21.8 Mbps 23.976 fps
Аудио#1: DTS- 6 ch 1 510 Kbps (RUS) 48.0 KHz (Дубляж)
Аудио#2: AC-3, 6 ch, 448 kbps (Rus) 48.0 KHz (Дубляж)
Аудио#3: DTS-6 ch 1 510 Kbps (Eng) 48.0 KHz (Оригинал)

Название: Эффект.колибри-Hummingbird.(2013).BDRemux.[1080p]
Тип потока: Видео
Длительность: 01:40:02
Кодек: AVC
Кодек/Профиль: High4.1
Кодек/ID: V_MPEG4/ISO/AVC
Кодек/CABAC: Yes
Кодек/ReFrames: 3 frames
Размеры изображения: 1920 x 1080 (16:9)
Частота кадров: 23.976 fps
Размер потока: 15.2 GiB (84%)
Битрейт: 21.8 Mbps
Битрейт/макс: 35.0 Mbps
Битрейт/тип: VBR
Стандарт: NTSC
Цветовое пространство: YUV
Тип развёртки: Progressive
Глубина: 8 bits
Тип потока: Звук #1
Язык: Russian
Длительность: 01:40:02.881
Кодек: DTS
Кодек/Профиль: MA / Core
Кодек/ID: A_DTS
Частота дискретизации: 48.0 KHz
Каналов: 6 channels
Битрейт: 1 561 Kbps / 1 510 Kbps
Битрейт/тип: Variable
Глубина: 16 bits
Метод сжатия: Lossless / Lossy
Тип потока: Звук #2
Язык: Russian
Длительность: 01:40:02.881
Кодек: AC-3
Кодек/ID: A_AC3
Частота дискретизации: 48.0 KHz
Каналов: 6 channels
Битрейт: 448 Kbps
Битрейт/тип: Constant
Размер потока: 321 MiB (2%)
Глубина: 16 bits
Метод сжатия: Lossy
Тип потока: Звук #3
Язык: English
Название: DTS-HD MA 5.1 / 1918 kbps
Длительность: 01:40:02.881
Кодек: DTS
Кодек/Профиль: MA / Core
Кодек/ID: A_DTS
Частота дискретизации: 48.0 KHz
Каналов: 6 channels
Битрейт: 1 561 Kbps / 1 510 Kbps
Битрейт/тип: Variable
Глубина: 16 bits
Метод сжатия: Lossless / Lossy
Тип потока: Субтитры #1
Язык: English
Формат: UTF-8
Формат/подробно: UTF-8 Plain Text

pb.wtf



Скачать Эффект колибри через торрент http://pic.kartinco.top/images/4/d16km.jpg Скачать фильм Эффект колибри через торрент бесплантно в хорошем качестве Описание: Джоуи Джонс, бывший спецназовец, пытается избавиться от мучительных воспоминаний в лондонских трущобах. Чтобы восстановить ... 9.2 10 12
Info! Золотая раздача, скачанное не засчитывается.
Торрент: Зарегистрирован [2013-09-27 15:24] · скачан: 107 раз
Статус: √ проверено
Размер: 18.07 GB
Как cкачать? Как скачать Эффект колибри через торрент | qTorrent

28-11-2019 20:33  

Отключить всю рекламу на сайте

27-09-2013 16:51 Эффект колибри Скачать торрент  

А... Это где он весь фильм стреляет?pb.wtf



27-09-2013 18:45 Эффект колибри Скачать торрент  

странный фильм, посмотрел половину фильма и удалил. pb.wtf



    Дорогой пользователь! Огромная просьба, поблагодарите релизера, оцените раздачу и оставьте свои комментарий, если Вы скачали Эффект колибри через торрент бесплатно! Внесите свою лепту в развитие PiratBit!
    Комментировать посты могут только пользователи прошедшие не сложную регистрацию
    Показать сообщения:    

    Эффект колибри через торрент
    Скачать бесплатно Эффект колибри
    Эффект колибри скачать торрент
    Эффект колибри смотреть онлайн
    Cкачать фильм Эффект колибри бесплатно
    Эффект колибри скачать торрент в хорошем качестве
    Эффект колибри смотреть онлайн бесплатно в хорошем качестве


    Вы не можете начинать темы
    Вы не можете отвечать на сообщения
    Вы не можете редактировать свои сообщения
    Вы не можете удалять свои сообщения
    Вы не можете голосовать в опросах
    Вы не можете прикреплять файлы к сообщениям
    Вы можете скачивать файлы