Ссылка на приватное зеркало нашего сайта всего за 1$. Внимание количество ограничено!!!

2 сезон

iTunes

1 сезон

1

iTunes

iTunes

iTunes

1 сезон

RePack

30

ИГРА 18+

pack

ВАЖНО

!!Акция!!

Alien_RageХит недели

RePack

MK11
pack

Забери бонус

RePack

jed

!!Акция!!

Alien_Rage

RePack

fifa19

RePack

Assassins Creed: Odyssey

RePack

NEED FOR SPEED™ PAYBACK

4 сезон

9 сезон

Бесстыжие 9 сезон

Все сериалы

все сериалы на PB.wtf

RePack

FAR CRY 5
  

Трое из Простоквашино (Владимир Попов) [1977, 1980, 1984 г., мультфильм, короткометражка, семейный, BDRip 1080p, Оригинал, +Бонус] pb.wtf

Трое из Простоквашино через торрент pb.wtf

Размер: 4.37 GB | Добавлен: 7 лет назад | Торрент скачан:198 раз
Скачать  

28-09-2013 04:14 Трое из Простоквашино Скачать торрент  

Трое из Простоквашино
Год выпуска: 1977, 1980, 1984
Страна: СССР
Жанр: мультфильм, короткометражка, семейный,
Продолжительность: 01:25:15
Перевод: Не требуется
Субтитры: Нет

Качество: BDRip 1080p
Формат: MKV
Видео кодек: AVC
Аудио кодек: AC3
Видео: 6856 Кбит/сек, 1428*1080 (4:3), в 25,000 кадров/сек, AVC
Аудио: 448 Кбит/сек, 48,0 КГц, 16 бит, 6 каналов, AC-3
Название: Трое из Простоквашино
Год выхода: 1978
Жанр: мультфильм, короткометражка, семейный
Режиссер: Владимир Попов
В ролях: Мария Виноградова, Олег Табаков, Лев Дуров, Борис Новиков, Герман Качин, Валентина Талызина
Описание: Жил-был мальчик по прозвищу Дядя Федор. Он очень любил животных, но его родители и слышать ничего не хотели о том, чобы в их квартире завелся кто-то хвостатый и лохматый. И пришлось Дяде Федору со своими новыми приятелями - котом Матроскиным и верным песиком Шариком - отправиться в деревню Простоквашино.

Название: Каникулы в Простоквашино
Год выхода: 1980
Жанр: мультфильм, короткометражка, семейный
Режиссер: Владимир Попов
В ролях: Олег Табаков, Лев Дуров, Мария Виноградова, Герман Качин, Валентина Талызина, Борис Новиков
Описание: Заболевший дядя Федор был увезен в первом мультфильме родителями в город, а заблудшая на участок корова стала давать огромное количество молока. Шарик и кот Матроскин вяло поругивались, но жили в целом мирно.А тем временем мама решила поехать на курорт, чтобы износить четыре вечерних платья, а на вокзале дядя Федор сбежал и укатил в Простоквашино к своим старым друзьям. Шарику прислали фоторужье, Корова родила теленка, которого Шарик учил служить. Много было веселых и славных событий, а под конец и мама приехала с папой. Если бы у нее была вторая жизнь, она бы ее провела в Простоквашино.

Название: Зима в Простоквашино
Год выхода: 1984
Жанр: мультфильм, короткометражка, семейный
Режиссер: Владимир Попов
В ролях: Валентина Талызина, Олег Табаков, Борис Новиков, Зинаида Нарышкина, Герман Качин, Лев Дуров, Мария Виноградова
Описание: Шарик купил себе на зиму вместо валенок кеды, Матроскин обозвал его балбесом, и друзья друг с другом не разговаривали. Дядя Федор тем временем ремонтировал с папой «запорожца», а маме все надоело.
А на Новый год папа с Федором решили поехать в Простоквашино проведать Шарика с Матроскиным, которые уже начали раздел имущества... Там все и встретили Новый Год - даже мама на лыжах приехала!

Название: Бобик в гостях у Барбоса
Год выхода: 1977
Жанр: мультфильм, короткометражка, комедия
Режиссер: Владимир Попов
В ролях: Юрий Никулин, Олег Табаков
Описание: По сказке Н. Носова «Человек собаке друг - это знают все вокруг!».

Название: Приключения Васи Куролесова
Год выхода: 1981
Жанр: мультфильм, короткометражка
Режиссер: Владимир Попов
В ролях: Лев Дуров, Михаил Кононов, Вячеслав Невинный, Вера Васильева, Борис Новиков, Евгений Леонов, Юрий Яковлев
Описание: Комический детектив по мотивам повести Юрия Коваля о злоключениях наивного деревенского паренька Васи Куролесова, одураченного шайкой местных уголовников.




Общее
Кол-во : 284
Кол-во потоков такого типа : 1
Тип потока : General
Тип потока : Общее
Идентификатор типа потока : 0
Inform : Matroska: 925 Мбайт, 17 м.
Уникальный идентификатор : 246278629086474620998306745084652305212
Уникальный идентификатор : 246278629086474620998306745084652305212 (0xB94789E471A5F9BC999DADDA84A43B3C)
Кол-во видеопотоков : 1
Кол-во аудиопотоков : 1
Video_Format_List : AVC
Video_Format_WithHint_List : AVC
Видеокодеки : AVC
Video_Language_List : English
Audio_Format_List : AC-3
Audio_Format_WithHint_List : AC-3
Аудиокодеки : AC3
Audio_Language_List : English
Полное имя : H:ТОРРЕНТЫТрое из Простоквашино�1 Трое из Простоквашино (1978) 1080p BDRip.mkv
Имя папки : H:ТОРРЕНТЫТрое из Простоквашино
Имя файла : 01 Трое из Простоквашино (1978) 1080p BDRip
Расширение : mkv
Формат : Matroska
Формат : Matroska
Формат/Ссылка : http://packs.matroska.org/
Формат/Используется в : mkv mk3d mka mks
Коммерческое название : Matroska
Версия формата : Version 2
Кодек : Matroska
Кодек : Matroska
Кодек/Ссылка : http://packs.matroska.org/
Кодек/Используется в : mkv mk3d mka mks
Размер файла : 969648150
Размер файла : 925 Мбайт
Размер файла : 925 Мбайт
Размер файла : 925 Мбайт
Размер файла : 925 Мбайт
Размер файла : 924,7 Мбайт
Продолжительность : 1062528
Продолжительность : 17 м.
Продолжительность : 17 м. 42 с. 528 мс.
Продолжительность : 17 м.
Продолжительность : 00:17:42.528
Общий поток : 7300688
Общий поток : 7301 Кбит/сек
Размер потока : 19302679
Размер потока : 18,4 Мбайт (2%)
Размер потока : 18 Мбайт
Размер потока : 18 Мбайт
Размер потока : 18,4 Мбайт
Размер потока : 18,41 Мбайт
Размер потока : 18,4 Мбайт (2%)
Пропорции потока : 0.01991
Дата кодирования : UTC 2011-03-23 05:45:31
Дата файла : UTC 2013-09-28 03:25:37.225
Дата файла (местная) : 2013-09-28 10:25:37.225
Дата изменения файла : UTC 2013-09-28 03:37:28.880
Дата изменения файла (местная) : 2013-09-28 10:37:28.880
Программа кодирования : mkvmerge v3.3.0 ('Language') built on Mar 24 2010 14:59:24
Библиотека кодирования : libebml v0.8.0 + libmatroska v0.9.0
Библиотека кодирования : libebml v0.8.0 + libmatroska v0.9.0

Видео
Кол-во : 263
Кол-во потоков такого типа : 1
Тип потока : Video
Тип потока : Видео
Идентификатор типа потока : 0
StreamOrder : 0
Inform : 6856 Кбит/сек, 1428*1080 (4:3), в 25,000 кадров/сек, AVC (High@L4.1) (CABAC / 4 Ref Frames)
Идентификатор : 1
Идентификатор : 1
Уникальный идентификатор : 1177749141
Формат : AVC
Формат/Информация : Advanced Video Codec
Формат/Ссылка : http://developers.videolan.org/x264.html
Коммерческое название : AVC
Профиль формата : High@L4.1
Настройки формата : CABAC / 4 Ref Frames
Параметр CABAC формата : Yes
Параметр CABAC формата : Да
Параметр ReFrames формата : 4
Параметр ReFrames формата : 4 кадра
Интернет-тип носителя : video/H264
Идентификатор кодека : V_MPEG4/ISO/AVC
Идентификатор кодека/Ссылка : http://ffdshow-tryout.sourceforge.net/
Кодек : V_MPEG4/ISO/AVC
Кодек : AVC
Кодек/Семейство : AVC
Кодек/Информация : Advanced Video Codec
Кодек/Ссылка : http://ffdshow-tryout.sourceforge.net/
Профиль кодека : High@L4.1
Настройки кодека : CABAC / 4 Ref Frames
Параметр CABAC кодека : Yes
Codec_Settings_RefFrames : 4
Продолжительность : 1062520
Продолжительность : 17 м.
Продолжительность : 17 м. 42 с. 520 мс.
Продолжительность : 17 м.
Продолжительность : 00:17:42.520
Битрейт : 6856000
Битрейт : 6856 Кбит/сек
Ширина : 1428
Ширина : 1428 пикселей
Высота : 1080
Высота : 1080 пикселей
Пропорции пикселя : 1.000
Соотношение сторон : 1.322
Соотношение сторон : 4:3
Режим частоты кадров : CFR
Режим частоты кадров : Постоянный
Частота кадров : 25.000
Частота кадров : 25,000 кадров/сек
Счётчик кадров : 26563
Разрешение : 8
Разрешение : 8 бит
Колориметрия : 4:2:0
Цветовое пространство : YUV
Субдискретизация насыщенности : 4:2:0
Битовая глубина : 8
Битовая глубина : 8 бит
Тип развёртки : Progressive
Тип развёртки : Прогрессивная
Переплетение : PPF
Переплетение : Прогрессивная
Бит/(Пиксели*Кадры) : 0.178
Задержка : 0
Задержка : 00:00:00.000
Задержка в оригинале : Container
Задержка в оригинале : Контейнер
Размер потока : 890843903
Размер потока : 850 Мбайт (92%)
Размер потока : 850 Мбайт
Размер потока : 850 Мбайт
Размер потока : 850 Мбайт
Размер потока : 849,6 Мбайт
Размер потока : 850 Мбайт (92%)
Пропорции потока : 0.91873
Библиотека кодирования : x264 - core 92 r1510 33d382a
Библиотека кодирования : x264 core 92 r1510 33d382a
Библиотека кодирования/Имя : x264
Библиотека кодирования/Version : core 92 r1510 33d382a
Настройки программы : cabac=1 / ref=4 / deblock=1:-2:-2 / analyse=0x3:0x113 / me=umh / subme=9 / psy=1 / psy_rd=0.40:0.00 / mixed_ref=1 / me_range=48 / chroma_me=1 / trellis=1 / 8x8dct=1 / cqm=0 / deadzone=21,11 / fast_pskip=0 / chroma_qp_offset=-2 / threads=3 / sliced_threads=0 / nr=0 / decimate=0 / interlaced=0 / constrained_intra=0 / bframes=6 / b_pyramid=2 / b_adapt=2 / b_bias=0 / direct=3 / wpredb=1 / wpredp=2 / keyint=250 / keyint_min=24 / scenecut=40 / intra_refresh=0 / rc=2pass / mbtree=0 / bitrate=6856 / ratetol=1.0 / qcomp=0.60 / qpmin=10 / qpmax=51 / qpstep=4 / cplxblur=20.0 / qblur=0.5 / ip_ratio=1.40 / pb_ratio=1.30 / aq=1:0.60
Default : Yes
Default : Да
Forced : No
Forced : Нет

Аудио
Кол-во : 243
Кол-во потоков такого типа : 1
Тип потока : Audio
Тип потока : Аудио
Идентификатор типа потока : 0
StreamOrder : 1
Inform : 448 Кбит/сек, 48,0 КГц, 16 бит, 6 каналов, AC-3
Идентификатор : 2
Идентификатор : 2
Уникальный идентификатор : 1746742182
Формат : AC-3
Формат/Информация : Audio Coding 3
Коммерческое название : AC-3
Расширение режима : CM (complete main)
Параметр Endianness формата : Big
Идентификатор кодека : A_AC3
Кодек : AC3
Кодек : AC3
Кодек/Семейство : AC3
Кодек/Информация : Dolby AC3
Продолжительность : 1062528
Продолжительность : 17 м.
Продолжительность : 17 м. 42 с. 528 мс.
Продолжительность : 17 м.
Продолжительность : 00:17:42.528
Вид битрейта : CBR
Вид битрейта : Постоянный
Битрейт : 448000
Битрейт : 448 Кбит/сек
Каналы : 6
Каналы : 6 каналов
Расположение каналов : Front: L C R, Side: L R, LFE
Расположение каналов : 3/2/0.1
Частота : 48000
Частота : 48,0 КГц
Количество образцов : 51001344
Разрешение : 16
Разрешение : 16 бит
Битовая глубина : 16
Битовая глубина : 16 бит
Метод сжатия : Lossy
Метод сжатия : С потерями
Задержка : 0
Задержка : 00:00:00.000
Задержка в оригинале : Container
Задержка в оригинале : Контейнер
Задержка видео : 0
Задержка видео : 0
Размер потока : 59501568
Размер потока : 56,7 Мбайт (6%)
Размер потока : 57 Мбайт
Размер потока : 57 Мбайт
Размер потока : 56,7 Мбайт
Размер потока : 56,75 Мбайт
Размер потока : 56,7 Мбайт (6%)
Пропорции потока : 0.06136
Default : Yes
Default : Да
Forced : No
Forced : Нет
bsid : 8
dialnorm : -31
dialnorm/String : -31 dB
compr : -0.28
compr/String : -0.28 dB
acmod : 7
lfeon : 1
dialnorm_Average : -31
dialnorm_Average/String : -31 dB
dialnorm_Minimum : -31
dialnorm_Minimum/String : -31 dB
dialnorm_Maximum : -31
dialnorm_Maximum/String : -31 dB
dialnorm_Count : 2
compr_Average : -0.28
compr_Average/String : -0.28 dB
compr_Minimum : -0.28
compr_Minimum/String : -0.28 dB
compr_Maximum : -0.28
compr_Maximum/String : -0.28 dB
compr_Count : 2

Общее
Кол-во : 284
Кол-во потоков такого типа : 1
Тип потока : General
Тип потока : Общее
Идентификатор типа потока : 0
Уникальный идентификатор : 200862971930258027423649414616073808499
Уникальный идентификатор : 200862971930258027423649414616073808499 (0x971CCD1DCBEC7053A91A024AF222AA73)
Кол-во видеопотоков : 1
Кол-во аудиопотоков : 1
Video_Format_List : AVC
Video_Format_WithHint_List : AVC
Видеокодеки : AVC
Video_Language_List : English
Audio_Format_List : AC-3
Audio_Format_WithHint_List : AC-3
Аудиокодеки : AC3
Audio_Language_List : English
Полное имя : H:ТОРРЕНТЫТрое из Простоквашино�2 Каникулы в Простоквашино (1980) 1080p BDRip.mkv
Имя папки : H:ТОРРЕНТЫТрое из Простоквашино
Имя файла : 02 Каникулы в Простоквашино (1980) 1080p BDRip
Расширение : mkv
Формат : Matroska
Формат : Matroska
Формат/Ссылка : http://packs.matroska.org/
Формат/Используется в : mkv mk3d mka mks
Коммерческое название : Matroska
Версия формата : Version 2
Кодек : Matroska
Кодек : Matroska
Кодек/Ссылка : http://packs.matroska.org/
Кодек/Используется в : mkv mk3d mka mks
Размер файла : 986032381
Размер файла : 940 Мбайт
Размер файла : 940 Мбайт
Размер файла : 940 Мбайт
Размер файла : 940 Мбайт
Размер файла : 940,4 Мбайт
Продолжительность : 1079616
Продолжительность : 17 м.
Продолжительность : 17 м. 59 с. 616 мс.
Продолжительность : 17 м.
Продолжительность : 00:17:59.616
Общий поток : 7306541
Общий поток : 7307 Кбит/сек
Размер потока : 19635529
Размер потока : 18,7 Мбайт (2%)
Размер потока : 19 Мбайт
Размер потока : 19 Мбайт
Размер потока : 18,7 Мбайт
Размер потока : 18,73 Мбайт
Размер потока : 18,7 Мбайт (2%)
Пропорции потока : 0.01991
Дата кодирования : UTC 2011-03-24 02:08:15
Дата файла : UTC 2013-09-28 03:25:38.467
Дата файла (местная) : 2013-09-28 10:25:38.467
Дата изменения файла : UTC 2013-09-28 03:37:28.760
Дата изменения файла (местная) : 2013-09-28 10:37:28.760
Программа кодирования : mkvmerge v3.3.0 ('Language') built on Mar 24 2010 14:59:24
Библиотека кодирования : libebml v0.8.0 + libmatroska v0.9.0
Библиотека кодирования : libebml v0.8.0 + libmatroska v0.9.0

Видео
Кол-во : 263
Кол-во потоков такого типа : 1
Тип потока : Video
Тип потока : Видео
Идентификатор типа потока : 0
StreamOrder : 0
Идентификатор : 1
Идентификатор : 1
Уникальный идентификатор : 4129561480
Формат : AVC
Формат/Информация : Advanced Video Codec
Формат/Ссылка : http://developers.videolan.org/x264.html
Коммерческое название : AVC
Профиль формата : High@L4.1
Настройки формата : CABAC / 4 Ref Frames
Параметр CABAC формата : Yes
Параметр CABAC формата : Да
Параметр ReFrames формата : 4
Параметр ReFrames формата : 4 кадра
Интернет-тип носителя : video/H264
Идентификатор кодека : V_MPEG4/ISO/AVC
Идентификатор кодека/Ссылка : http://ffdshow-tryout.sourceforge.net/
Кодек : V_MPEG4/ISO/AVC
Кодек : AVC
Кодек/Семейство : AVC
Кодек/Информация : Advanced Video Codec
Кодек/Ссылка : http://ffdshow-tryout.sourceforge.net/
Профиль кодека : High@L4.1
Настройки кодека : CABAC / 4 Ref Frames
Параметр CABAC кодека : Yes
Codec_Settings_RefFrames : 4
Продолжительность : 1079600
Продолжительность : 17 м.
Продолжительность : 17 м. 59 с. 600 мс.
Продолжительность : 17 м.
Продолжительность : 00:17:59.600
Битрейт : 6856000
Битрейт : 6856 Кбит/сек
Ширина : 1428
Ширина : 1428 пикселей
Высота : 1080
Высота : 1080 пикселей
Пропорции пикселя : 1.000
Соотношение сторон : 1.322
Соотношение сторон : 4:3
Режим частоты кадров : CFR
Режим частоты кадров : Постоянный
Частота кадров : 25.000
Частота кадров : 25,000 кадров/сек
Счётчик кадров : 26990
Разрешение : 8
Разрешение : 8 бит
Колориметрия : 4:2:0
Цветовое пространство : YUV
Субдискретизация насыщенности : 4:2:0
Битовая глубина : 8
Битовая глубина : 8 бит
Тип развёртки : Progressive
Тип развёртки : Прогрессивная
Переплетение : PPF
Переплетение : Прогрессивная
Бит/(Пиксели*Кадры) : 0.178
Задержка : 0
Задержка : 00:00:00.000
Задержка в оригинале : Container
Задержка в оригинале : Контейнер
Размер потока : 905938356
Размер потока : 864 Мбайт (92%)
Размер потока : 864 Мбайт
Размер потока : 864 Мбайт
Размер потока : 864 Мбайт
Размер потока : 864,0 Мбайт
Размер потока : 864 Мбайт (92%)
Пропорции потока : 0.91877
Библиотека кодирования : x264 - core 92 r1510 33d382a
Библиотека кодирования : x264 core 92 r1510 33d382a
Библиотека кодирования/Имя : x264
Библиотека кодирования/Version : core 92 r1510 33d382a
Настройки программы : cabac=1 / ref=4 / deblock=1:-2:-2 / analyse=0x3:0x113 / me=umh / subme=9 / psy=1 / psy_rd=0.40:0.00 / mixed_ref=1 / me_range=48 / chroma_me=1 / trellis=1 / 8x8dct=1 / cqm=0 / deadzone=21,11 / fast_pskip=0 / chroma_qp_offset=-2 / threads=3 / sliced_threads=0 / nr=0 / decimate=0 / interlaced=0 / constrained_intra=0 / bframes=6 / b_pyramid=2 / b_adapt=2 / b_bias=0 / direct=3 / wpredb=1 / wpredp=2 / keyint=250 / keyint_min=24 / scenecut=40 / intra_refresh=0 / rc=2pass / mbtree=0 / bitrate=6856 / ratetol=1.0 / qcomp=0.60 / qpmin=10 / qpmax=51 / qpstep=4 / cplxblur=20.0 / qblur=0.5 / ip_ratio=1.40 / pb_ratio=1.30 / aq=1:0.60
Default : Yes
Default : Да
Forced : No
Forced : Нет

Аудио
Кол-во : 243
Кол-во потоков такого типа : 1
Тип потока : Audio
Тип потока : Аудио
Идентификатор типа потока : 0
StreamOrder : 1
Идентификатор : 2
Идентификатор : 2
Уникальный идентификатор : 3637992582
Формат : AC-3
Формат/Информация : Audio Coding 3
Коммерческое название : AC-3
Расширение режима : CM (complete main)
Параметр Endianness формата : Big
Идентификатор кодека : A_AC3
Кодек : AC3
Кодек : AC3
Кодек/Семейство : AC3
Кодек/Информация : Dolby AC3
Продолжительность : 1079616
Продолжительность : 17 м.
Продолжительность : 17 м. 59 с. 616 мс.
Продолжительность : 17 м.
Продолжительность : 00:17:59.616
Вид битрейта : CBR
Вид битрейта : Постоянный
Битрейт : 448000
Битрейт : 448 Кбит/сек
Каналы : 6
Каналы : 6 каналов
Расположение каналов : Front: L C R, Side: L R, LFE
Расположение каналов : 3/2/0.1
Частота : 48000
Частота : 48,0 КГц
Количество образцов : 51821568
Разрешение : 16
Разрешение : 16 бит
Битовая глубина : 16
Битовая глубина : 16 бит
Метод сжатия : Lossy
Метод сжатия : С потерями
Задержка : 0
Задержка : 00:00:00.000
Задержка в оригинале : Container
Задержка в оригинале : Контейнер
Задержка видео : 0
Задержка видео : 0
Размер потока : 60458496
Размер потока : 57,7 Мбайт (6%)
Размер потока : 58 Мбайт
Размер потока : 58 Мбайт
Размер потока : 57,7 Мбайт
Размер потока : 57,66 Мбайт
Размер потока : 57,7 Мбайт (6%)
Пропорции потока : 0.06131
Default : Yes
Default : Да
Forced : No
Forced : Нет
bsid : 8
dialnorm : -31
dialnorm/String : -31 dB
compr : -0.28
compr/String : -0.28 dB
acmod : 7
lfeon : 1
dialnorm_Average : -31
dialnorm_Average/String : -31 dB
dialnorm_Minimum : -31
dialnorm_Minimum/String : -31 dB
dialnorm_Maximum : -31
dialnorm_Maximum/String : -31 dB
dialnorm_Count : 2
compr_Average : -0.28
compr_Average/String : -0.28 dB
compr_Minimum : -0.28
compr_Minimum/String : -0.28 dB
compr_Maximum : -0.28
compr_Maximum/String : -0.28 dB
compr_Count : 2

Общее
Кол-во : 284
Кол-во потоков такого типа : 1
Тип потока : General
Тип потока : Общее
Идентификатор типа потока : 0
Уникальный идентификатор : 247861123354804902187053821226612145427
Уникальный идентификатор : 247861123354804902187053821226612145427 (0xBA7850E2386512A7B6BFD9ADB763BD13)
Кол-во видеопотоков : 1
Кол-во аудиопотоков : 1
Video_Format_List : AVC
Video_Format_WithHint_List : AVC
Видеокодеки : AVC
Video_Language_List : English
Audio_Format_List : AC-3
Audio_Format_WithHint_List : AC-3
Аудиокодеки : AC3
Audio_Language_List : English
Полное имя : H:ТОРРЕНТЫТрое из Простоквашино�3 Зима в Простоквашино (1984) 1080p BDRip.mkv
Имя папки : H:ТОРРЕНТЫТрое из Простоквашино
Имя файла : 03 Зима в Простоквашино (1984) 1080p BDRip
Расширение : mkv
Формат : Matroska
Формат : Matroska
Формат/Ссылка : http://packs.matroska.org/
Формат/Используется в : mkv mk3d mka mks
Коммерческое название : Matroska
Версия формата : Version 2
Кодек : Matroska
Кодек : Matroska
Кодек/Ссылка : http://packs.matroska.org/
Кодек/Используется в : mkv mk3d mka mks
Размер файла : 862753104
Размер файла : 823 Мбайт
Размер файла : 823 Мбайт
Размер файла : 823 Мбайт
Размер файла : 823 Мбайт
Размер файла : 822,8 Мбайт
Продолжительность : 944600
Продолжительность : 15 м.
Продолжительность : 15 м. 44 с. 600 мс.
Продолжительность : 15 м.
Продолжительность : 00:15:44.600
Общий поток : 7306823
Общий поток : 7307 Кбит/сек
Размер потока : 17168765
Размер потока : 16,4 Мбайт (2%)
Размер потока : 16 Мбайт
Размер потока : 16 Мбайт
Размер потока : 16,4 Мбайт
Размер потока : 16,37 Мбайт
Размер потока : 16,4 Мбайт (2%)
Пропорции потока : 0.01990
Дата кодирования : UTC 2011-03-24 21:00:07
Дата файла : UTC 2013-09-28 03:26:52.478
Дата файла (местная) : 2013-09-28 10:26:52.478
Дата изменения файла : UTC 2013-09-28 03:37:27.949
Дата изменения файла (местная) : 2013-09-28 10:37:27.949
Программа кодирования : mkvmerge v3.3.0 ('Language') built on Mar 24 2010 14:59:24
Библиотека кодирования : libebml v0.8.0 + libmatroska v0.9.0
Библиотека кодирования : libebml v0.8.0 + libmatroska v0.9.0

Видео
Кол-во : 263
Кол-во потоков такого типа : 1
Тип потока : Video
Тип потока : Видео
Идентификатор типа потока : 0
StreamOrder : 0
Идентификатор : 1
Идентификатор : 1
Уникальный идентификатор : 2772632968
Формат : AVC
Формат/Информация : Advanced Video Codec
Формат/Ссылка : http://developers.videolan.org/x264.html
Коммерческое название : AVC
Профиль формата : High@L4.1
Настройки формата : CABAC / 4 Ref Frames
Параметр CABAC формата : Yes
Параметр CABAC формата : Да
Параметр ReFrames формата : 4
Параметр ReFrames формата : 4 кадра
Интернет-тип носителя : video/H264
Идентификатор кодека : V_MPEG4/ISO/AVC
Идентификатор кодека/Ссылка : http://ffdshow-tryout.sourceforge.net/
Кодек : V_MPEG4/ISO/AVC
Кодек : AVC
Кодек/Семейство : AVC
Кодек/Информация : Advanced Video Codec
Кодек/Ссылка : http://ffdshow-tryout.sourceforge.net/
Профиль кодека : High@L4.1
Настройки кодека : CABAC / 4 Ref Frames
Параметр CABAC кодека : Yes
Codec_Settings_RefFrames : 4
Продолжительность : 944600
Продолжительность : 15 м.
Продолжительность : 15 м. 44 с. 600 мс.
Продолжительность : 15 м.
Продолжительность : 00:15:44.600
Битрейт : 6856000
Битрейт : 6856 Кбит/сек
Ширина : 1428
Ширина : 1428 пикселей
Высота : 1080
Высота : 1080 пикселей
Пропорции пикселя : 1.000
Соотношение сторон : 1.322
Соотношение сторон : 4:3
Режим частоты кадров : CFR
Режим частоты кадров : Постоянный
Частота кадров : 25.000
Частота кадров : 25,000 кадров/сек
Счётчик кадров : 23615
Разрешение : 8
Разрешение : 8 бит
Колориметрия : 4:2:0
Цветовое пространство : YUV
Субдискретизация насыщенности : 4:2:0
Битовая глубина : 8
Битовая глубина : 8 бит
Тип развёртки : Progressive
Тип развёртки : Прогрессивная
Переплетение : PPF
Переплетение : Прогрессивная
Бит/(Пиксели*Кадры) : 0.178
Задержка : 0
Задержка : 00:00:00.000
Задержка в оригинале : Container
Задержка в оригинале : Контейнер
Размер потока : 792686739
Размер потока : 756 Мбайт (92%)
Размер потока : 756 Мбайт
Размер потока : 756 Мбайт
Размер потока : 756 Мбайт
Размер потока : 756,0 Мбайт
Размер потока : 756 Мбайт (92%)
Пропорции потока : 0.91879
Библиотека кодирования : x264 - core 92 r1510 33d382a
Библиотека кодирования : x264 core 92 r1510 33d382a
Библиотека кодирования/Имя : x264
Библиотека кодирования/Version : core 92 r1510 33d382a
Настройки программы : cabac=1 / ref=4 / deblock=1:-2:-2 / analyse=0x3:0x113 / me=umh / subme=9 / psy=1 / psy_rd=0.40:0.00 / mixed_ref=1 / me_range=48 / chroma_me=1 / trellis=1 / 8x8dct=1 / cqm=0 / deadzone=21,11 / fast_pskip=0 / chroma_qp_offset=-2 / threads=3 / sliced_threads=0 / nr=0 / decimate=0 / interlaced=0 / constrained_intra=0 / bframes=6 / b_pyramid=2 / b_adapt=2 / b_bias=0 / direct=3 / wpredb=1 / wpredp=2 / keyint=250 / keyint_min=24 / scenecut=40 / intra_refresh=0 / rc=2pass / mbtree=0 / bitrate=6856 / ratetol=1.0 / qcomp=0.60 / qpmin=10 / qpmax=51 / qpstep=4 / cplxblur=20.0 / qblur=0.5 / ip_ratio=1.40 / pb_ratio=1.30 / aq=1:0.60
Default : Yes
Default : Да
Forced : No
Forced : Нет

Аудио
Кол-во : 243
Кол-во потоков такого типа : 1
Тип потока : Audio
Тип потока : Аудио
Идентификатор типа потока : 0
StreamOrder : 1
Идентификатор : 2
Идентификатор : 2
Уникальный идентификатор : 1208954775
Формат : AC-3
Формат/Информация : Audio Coding 3
Коммерческое название : AC-3
Расширение режима : CM (complete main)
Параметр Endianness формата : Big
Идентификатор кодека : A_AC3
Кодек : AC3
Кодек : AC3
Кодек/Семейство : AC3
Кодек/Информация : Dolby AC3
Продолжительность : 944600
Продолжительность : 15 м.
Продолжительность : 15 м. 44 с. 600 мс.
Продолжительность : 15 м.
Продолжительность : 00:15:44.600
Вид битрейта : CBR
Вид битрейта : Постоянный
Битрейт : 448000
Битрейт : 448 Кбит/сек
Каналы : 6
Каналы : 6 каналов
Расположение каналов : Front: L C R, Side: L R, LFE
Расположение каналов : 3/2/0.1
Частота : 48000
Частота : 48,0 КГц
Количество образцов : 45340800
Разрешение : 16
Разрешение : 16 бит
Битовая глубина : 16
Битовая глубина : 16 бит
Метод сжатия : Lossy
Метод сжатия : С потерями
Задержка : 0
Задержка : 00:00:00.000
Задержка в оригинале : Container
Задержка в оригинале : Контейнер
Задержка видео : 0
Задержка видео : 0
Размер потока : 52897600
Размер потока : 50,4 Мбайт (6%)
Размер потока : 50 Мбайт
Размер потока : 50 Мбайт
Размер потока : 50,4 Мбайт
Размер потока : 50,45 Мбайт
Размер потока : 50,4 Мбайт (6%)
Пропорции потока : 0.06131
Default : Yes
Default : Да
Forced : No
Forced : Нет
bsid : 8
dialnorm : -31
dialnorm/String : -31 dB
compr : -0.28
compr/String : -0.28 dB
acmod : 7
lfeon : 1
dialnorm_Average : -31
dialnorm_Average/String : -31 dB
dialnorm_Minimum : -31
dialnorm_Minimum/String : -31 dB
dialnorm_Maximum : -31
dialnorm_Maximum/String : -31 dB
dialnorm_Count : 2
compr_Average : -0.28
compr_Average/String : -0.28 dB
compr_Minimum : -0.28
compr_Minimum/String : -0.28 dB
compr_Maximum : -0.28
compr_Maximum/String : -0.28 dB
compr_Count : 2

Общее
Кол-во : 284
Кол-во потоков такого типа : 1
Тип потока : General
Тип потока : Общее
Идентификатор типа потока : 0
Уникальный идентификатор : 228516947817192875520645902073128320785
Уникальный идентификатор : 228516947817192875520645902073128320785 (0xABEAC36503BDDCFBACE2FD4B44807F11)
Кол-во видеопотоков : 1
Кол-во аудиопотоков : 1
Video_Format_List : AVC
Video_Format_WithHint_List : AVC
Видеокодеки : AVC
Video_Language_List : English
Audio_Format_List : AC-3
Audio_Format_WithHint_List : AC-3
Аудиокодеки : AC3
Audio_Language_List : English
Полное имя : H:ТОРРЕНТЫТрое из Простоквашино�4 Бобик в гостях у Барбоса (1977) 1080p BDRip.mkv
Имя папки : H:ТОРРЕНТЫТрое из Простоквашино
Имя файла : 04 Бобик в гостях у Барбоса (1977) 1080p BDRip
Расширение : mkv
Формат : Matroska
Формат : Matroska
Формат/Ссылка : http://packs.matroska.org/
Формат/Используется в : mkv mk3d mka mks
Коммерческое название : Matroska
Версия формата : Version 2
Кодек : Matroska
Кодек : Matroska
Кодек/Ссылка : http://packs.matroska.org/
Кодек/Используется в : mkv mk3d mka mks
Размер файла : 495235509
Размер файла : 472 Мбайт
Размер файла : 472 Мбайт
Размер файла : 472 Мбайт
Размер файла : 472 Мбайт
Размер файла : 472,3 Мбайт
Продолжительность : 521280
Продолжительность : 8 м. 41 с.
Продолжительность : 8 м. 41 с. 280 мс.
Продолжительность : 8 м. 41 с.
Продолжительность : 00:08:41.280
Общий поток : 7600299
Общий поток : 7600 Кбит/сек
Размер потока : 9855212
Размер потока : 9,40 Мбайт (2%)
Размер потока : 9 Мбайт
Размер потока : 9,4 Мбайт
Размер потока : 9,40 Мбайт
Размер потока : 9,399 Мбайт
Размер потока : 9,40 Мбайт (2%)
Пропорции потока : 0.01990
Дата кодирования : UTC 2011-03-27 00:23:44
Дата файла : UTC 2013-09-28 03:25:36.712
Дата файла (местная) : 2013-09-28 10:25:36.712
Дата изменения файла : UTC 2013-09-28 03:37:28.880
Дата изменения файла (местная) : 2013-09-28 10:37:28.880
Программа кодирования : mkvmerge v3.3.0 ('Language') built on Mar 24 2010 14:59:24
Библиотека кодирования : libebml v0.8.0 + libmatroska v0.9.0
Библиотека кодирования : libebml v0.8.0 + libmatroska v0.9.0

Видео
Кол-во : 263
Кол-во потоков такого типа : 1
Тип потока : Video
Тип потока : Видео
Идентификатор типа потока : 0
StreamOrder : 0
Идентификатор : 1
Идентификатор : 1
Уникальный идентификатор : 3427737235
Формат : AVC
Формат/Информация : Advanced Video Codec
Формат/Ссылка : http://developers.videolan.org/x264.html
Коммерческое название : AVC
Профиль формата : High@L4.1
Настройки формата : CABAC / 4 Ref Frames
Параметр CABAC формата : Yes
Параметр CABAC формата : Да
Параметр ReFrames формата : 4
Параметр ReFrames формата : 4 кадра
Интернет-тип носителя : video/H264
Идентификатор кодека : V_MPEG4/ISO/AVC
Идентификатор кодека/Ссылка : http://ffdshow-tryout.sourceforge.net/
Кодек : V_MPEG4/ISO/AVC
Кодек : AVC
Кодек/Семейство : AVC
Кодек/Информация : Advanced Video Codec
Кодек/Ссылка : http://ffdshow-tryout.sourceforge.net/
Профиль кодека : High@L4.1
Настройки кодека : CABAC / 4 Ref Frames
Параметр CABAC кодека : Yes
Codec_Settings_RefFrames : 4
Продолжительность : 521280
Продолжительность : 8 м. 41 с.
Продолжительность : 8 м. 41 с. 280 мс.
Продолжительность : 8 м. 41 с.
Продолжительность : 00:08:41.280
Битрейт : 7159000
Битрейт : 7159 Кбит/сек
Ширина : 1428
Ширина : 1428 пикселей
Высота : 1080
Высота : 1080 пикселей
Пропорции пикселя : 1.000
Соотношение сторон : 1.322
Соотношение сторон : 4:3
Режим частоты кадров : CFR
Режим частоты кадров : Постоянный
Частота кадров : 25.000
Частота кадров : 25,000 кадров/сек
Счётчик кадров : 13032
Разрешение : 8
Разрешение : 8 бит
Колориметрия : 4:2:0
Цветовое пространство : YUV
Субдискретизация насыщенности : 4:2:0
Битовая глубина : 8
Битовая глубина : 8 бит
Тип развёртки : Progressive
Тип развёртки : Прогрессивная
Переплетение : PPF
Переплетение : Прогрессивная
Бит/(Пиксели*Кадры) : 0.186
Задержка : 0
Задержка : 00:00:00.000
Задержка в оригинале : Container
Задержка в оригинале : Контейнер
Размер потока : 456188617
Размер потока : 435 Мбайт (92%)
Размер потока : 435 Мбайт
Размер потока : 435 Мбайт
Размер потока : 435 Мбайт
Размер потока : 435,1 Мбайт
Размер потока : 435 Мбайт (92%)
Пропорции потока : 0.92115
Библиотека кодирования : x264 - core 92 r1510 33d382a
Библиотека кодирования : x264 core 92 r1510 33d382a
Библиотека кодирования/Имя : x264
Библиотека кодирования/Version : core 92 r1510 33d382a
Настройки программы : cabac=1 / ref=4 / deblock=1:-2:-2 / analyse=0x3:0x113 / me=umh / subme=9 / psy=1 / psy_rd=0.40:0.00 / mixed_ref=1 / me_range=48 / chroma_me=1 / trellis=1 / 8x8dct=1 / cqm=0 / deadzone=21,11 / fast_pskip=0 / chroma_qp_offset=-2 / threads=3 / sliced_threads=0 / nr=0 / decimate=0 / interlaced=0 / constrained_intra=0 / bframes=6 / b_pyramid=2 / b_adapt=2 / b_bias=0 / direct=3 / wpredb=1 / wpredp=2 / keyint=250 / keyint_min=24 / scenecut=40 / intra_refresh=0 / rc=2pass / mbtree=0 / bitrate=7159 / ratetol=1.0 / qcomp=0.60 / qpmin=10 / qpmax=51 / qpstep=4 / cplxblur=20.0 / qblur=0.5 / ip_ratio=1.40 / pb_ratio=1.30 / aq=1:0.60
Default : Yes
Default : Да
Forced : No
Forced : Нет

Аудио
Кол-во : 243
Кол-во потоков такого типа : 1
Тип потока : Audio
Тип потока : Аудио
Идентификатор типа потока : 0
StreamOrder : 1
Идентификатор : 2
Идентификатор : 2
Уникальный идентификатор : 1727477166
Формат : AC-3
Формат/Информация : Audio Coding 3
Коммерческое название : AC-3
Расширение режима : CM (complete main)
Параметр Endianness формата : Big
Идентификатор кодека : A_AC3
Кодек : AC3
Кодек : AC3
Кодек/Семейство : AC3
Кодек/Информация : Dolby AC3
Продолжительность : 521280
Продолжительность : 8 м. 41 с.
Продолжительность : 8 м. 41 с. 280 мс.
Продолжительность : 8 м. 41 с.
Продолжительность : 00:08:41.280
Вид битрейта : CBR
Вид битрейта : Постоянный
Битрейт : 448000
Битрейт : 448 Кбит/сек
Каналы : 6
Каналы : 6 каналов
Расположение каналов : Front: L C R, Side: L R, LFE
Расположение каналов : 3/2/0.1
Частота : 48000
Частота : 48,0 КГц
Количество образцов : 25021440
Разрешение : 16
Разрешение : 16 бит
Битовая глубина : 16
Битовая глубина : 16 бит
Метод сжатия : Lossy
Метод сжатия : С потерями
Задержка : 0
Задержка : 00:00:00.000
Задержка в оригинале : Container
Задержка в оригинале : Контейнер
Задержка видео : 0
Задержка видео : 0
Размер потока : 29191680
Размер потока : 27,8 Мбайт (6%)
Размер потока : 28 Мбайт
Размер потока : 28 Мбайт
Размер потока : 27,8 Мбайт
Размер потока : 27,84 Мбайт
Размер потока : 27,8 Мбайт (6%)
Пропорции потока : 0.05895
Default : Yes
Default : Да
Forced : No
Forced : Нет
bsid : 8
dialnorm : -31
dialnorm/String : -31 dB
compr : -1.80
compr/String : -1.80 dB
acmod : 7
lfeon : 1
dialnorm_Average : -31
dialnorm_Average/String : -31 dB
dialnorm_Minimum : -31
dialnorm_Minimum/String : -31 dB
dialnorm_Maximum : -31
dialnorm_Maximum/String : -31 dB
dialnorm_Count : 2
compr_Average : -1.80
compr_Average/String : -1.80 dB
compr_Minimum : -1.80
compr_Minimum/String : -1.80 dB
compr_Maximum : -1.80
compr_Maximum/String : -1.80 dB
compr_Count : 2

Общее
Кол-во : 284
Кол-во потоков такого типа : 1
Тип потока : General
Тип потока : Общее
Идентификатор типа потока : 0
Уникальный идентификатор : 200623754449725637109566099249100541377
Уникальный идентификатор : 200623754449725637109566099249100541377 (0x96EEBAC8B46C43A18ABF35B020F4CDC1)
Кол-во видеопотоков : 1
Кол-во аудиопотоков : 1
Video_Format_List : AVC
Video_Format_WithHint_List : AVC
Видеокодеки : AVC
Video_Language_List : English
Audio_Format_List : AC-3
Audio_Format_WithHint_List : AC-3
Аудиокодеки : AC3
Audio_Language_List : English
Полное имя : H:ТОРРЕНТЫТрое из Простоквашино�5 Приключения Васи Куролесова (1981) 1080p BDRip.mkv
Имя папки : H:ТОРРЕНТЫТрое из Простоквашино
Имя файла : 05 Приключения Васи Куролесова (1981) 1080p BDRip
Расширение : mkv
Формат : Matroska
Формат : Matroska
Формат/Ссылка : http://packs.matroska.org/
Формат/Используется в : mkv mk3d mka mks
Коммерческое название : Matroska
Версия формата : Version 2
Кодек : Matroska
Кодек : Matroska
Кодек/Ссылка : http://packs.matroska.org/
Кодек/Используется в : mkv mk3d mka mks
Размер файла : 1375574725
Размер файла : 1,28 Гбайт
Размер файла : 1 Гбайт
Размер файла : 1,3 Гбайт
Размер файла : 1,28 Гбайт
Размер файла : 1,281 Гбайт
Продолжительность : 1506800
Продолжительность : 25 м.
Продолжительность : 25 м. 6 с. 800 мс.
Продолжительность : 25 м.
Продолжительность : 00:25:06.800
Общий поток : 7303290
Общий поток : 7303 Кбит/сек
Размер потока : 27373989
Размер потока : 26,1 Мбайт (2%)
Размер потока : 26 Мбайт
Размер потока : 26 Мбайт
Размер потока : 26,1 Мбайт
Размер потока : 26,11 Мбайт
Размер потока : 26,1 Мбайт (2%)
Пропорции потока : 0.01990
Дата кодирования : UTC 2011-03-26 12:51:48
Дата файла : UTC 2013-09-28 03:25:35.228
Дата файла (местная) : 2013-09-28 10:25:35.228
Дата изменения файла : UTC 2013-09-28 03:37:28.550
Дата изменения файла (местная) : 2013-09-28 10:37:28.550
Программа кодирования : mkvmerge v3.3.0 ('Language') built on Mar 24 2010 14:59:24
Библиотека кодирования : libebml v0.8.0 + libmatroska v0.9.0
Библиотека кодирования : libebml v0.8.0 + libmatroska v0.9.0

Видео
Кол-во : 263
Кол-во потоков такого типа : 1
Тип потока : Video
Тип потока : Видео
Идентификатор типа потока : 0
StreamOrder : 0
Идентификатор : 1
Идентификатор : 1
Уникальный идентификатор : 2940252547
Формат : AVC
Формат/Информация : Advanced Video Codec
Формат/Ссылка : http://developers.videolan.org/x264.html
Коммерческое название : AVC
Профиль формата : High@L4.1
Настройки формата : CABAC / 4 Ref Frames
Параметр CABAC формата : Yes
Параметр CABAC формата : Да
Параметр ReFrames формата : 4
Параметр ReFrames формата : 4 кадра
Интернет-тип носителя : video/H264
Идентификатор кодека : V_MPEG4/ISO/AVC
Идентификатор кодека/Ссылка : http://ffdshow-tryout.sourceforge.net/
Кодек : V_MPEG4/ISO/AVC
Кодек : AVC
Кодек/Семейство : AVC
Кодек/Информация : Advanced Video Codec
Кодек/Ссылка : http://ffdshow-tryout.sourceforge.net/
Профиль кодека : High@L4.1
Настройки кодека : CABAC / 4 Ref Frames
Параметр CABAC кодека : Yes
Codec_Settings_RefFrames : 4
Продолжительность : 1506800
Продолжительность : 25 м.
Продолжительность : 25 м. 6 с. 800 мс.
Продолжительность : 25 м.
Продолжительность : 00:25:06.800
Битрейт : 6858000
Битрейт : 6858 Кбит/сек
Ширина : 1428
Ширина : 1428 пикселей
Высота : 1080
Высота : 1080 пикселей
Пропорции пикселя : 1.000
Соотношение сторон : 1.322
Соотношение сторон : 4:3
Режим частоты кадров : CFR
Режим частоты кадров : Постоянный
Частота кадров : 25.000
Частота кадров : 25,000 кадров/сек
Счётчик кадров : 37670
Разрешение : 8
Разрешение : 8 бит
Колориметрия : 4:2:0
Цветовое пространство : YUV
Субдискретизация насыщенности : 4:2:0
Битовая глубина : 8
Битовая глубина : 8 бит
Тип развёртки : Progressive
Тип развёртки : Прогрессивная
Переплетение : PPF
Переплетение : Прогрессивная
Бит/(Пиксели*Кадры) : 0.178
Задержка : 0
Задержка : 00:00:00.000
Задержка в оригинале : Container
Задержка в оригинале : Контейнер
Размер потока : 1263819936
Размер потока : 1,18 Гбайт (92%)
Размер потока : 1 Гбайт
Размер потока : 1,2 Гбайт
Размер потока : 1,18 Гбайт
Размер потока : 1,177 Гбайт
Размер потока : 1,18 Гбайт (92%)
Пропорции потока : 0.91876
Библиотека кодирования : x264 - core 92 r1510 33d382a
Библиотека кодирования : x264 core 92 r1510 33d382a
Библиотека кодирования/Имя : x264
Библиотека кодирования/Version : core 92 r1510 33d382a
Настройки программы : cabac=1 / ref=4 / deblock=1:-2:-2 / analyse=0x3:0x113 / me=umh / subme=9 / psy=1 / psy_rd=0.40:0.00 / mixed_ref=1 / me_range=48 / chroma_me=1 / trellis=1 / 8x8dct=1 / cqm=0 / deadzone=21,11 / fast_pskip=0 / chroma_qp_offset=-2 / threads=3 / sliced_threads=0 / nr=0 / decimate=0 / interlaced=0 / constrained_intra=0 / bframes=6 / b_pyramid=2 / b_adapt=2 / b_bias=0 / direct=3 / wpredb=1 / wpredp=2 / keyint=250 / keyint_min=24 / scenecut=40 / intra_refresh=0 / rc=2pass / mbtree=0 / bitrate=6858 / ratetol=1.0 / qcomp=0.60 / qpmin=10 / qpmax=51 / qpstep=4 / cplxblur=20.0 / qblur=0.5 / ip_ratio=1.40 / pb_ratio=1.30 / aq=1:0.60
Default : Yes
Default : Да
Forced : No
Forced : Нет

Аудио
Кол-во : 243
Кол-во потоков такого типа : 1
Тип потока : Audio
Тип потока : Аудио
Идентификатор типа потока : 0
StreamOrder : 1
Идентификатор : 2
Идентификатор : 2
Уникальный идентификатор : 3025071264
Формат : AC-3
Формат/Информация : Audio Coding 3
Коммерческое название : AC-3
Расширение режима : CM (complete main)
Параметр Endianness формата : Big
Идентификатор кодека : A_AC3
Кодек : AC3
Кодек : AC3
Кодек/Семейство : AC3
Кодек/Информация : Dolby AC3
Продолжительность : 1506800
Продолжительность : 25 м.
Продолжительность : 25 м. 6 с. 800 мс.
Продолжительность : 25 м.
Продолжительность : 00:25:06.800
Вид битрейта : CBR
Вид битрейта : Постоянный
Битрейт : 448000
Битрейт : 448 Кбит/сек
Каналы : 6
Каналы : 6 каналов
Расположение каналов : Front: L C R, Side: L R, LFE
Расположение каналов : 3/2/0.1
Частота : 48000
Частота : 48,0 КГц
Количество образцов : 72326400
Разрешение : 16
Разрешение : 16 бит
Битовая глубина : 16
Битовая глубина : 16 бит
Метод сжатия : Lossy
Метод сжатия : С потерями
Задержка : 0
Задержка : 00:00:00.000
Задержка в оригинале : Container
Задержка в оригинале : Контейнер
Задержка видео : 0
Задержка видео : 0
Размер потока : 84380800
Размер потока : 80,5 Мбайт (6%)
Размер потока : 80 Мбайт
Размер потока : 80 Мбайт
Размер потока : 80,5 Мбайт
Размер потока : 80,47 Мбайт
Размер потока : 80,5 Мбайт (6%)
Пропорции потока : 0.06134
Default : Yes
Default : Да
Forced : No
Forced : Нет
bsid : 8
dialnorm : -31
dialnorm/String : -31 dB
compr : -0.28
compr/String : -0.28 dB
acmod : 7
lfeon : 1
dialnorm_Average : -31
dialnorm_Average/String : -31 dB
dialnorm_Minimum : -31
dialnorm_Minimum/String : -31 dB
dialnorm_Maximum : -31
dialnorm_Maximum/String : -31 dB
dialnorm_Count : 2
compr_Average : -0.28
compr_Average/String : -0.28 dB
compr_Minimum : -0.28
compr_Minimum/String : -0.28 dB
compr_Maximum : -0.28
compr_Maximum/String : -0.28 dB
compr_Count : 2



pb.wtf



Скачать Трое из Простоквашино через торрент http://s019.radikal.ru/i618/1309/59/a177c2c09495.jpg Скачать фильм Трое из Простоквашино через торрент бесплантно в хорошем качестве ОписаниеНазвание: Трое из ПростоквашиноГод выхода: 1978Жанр: мультфильм, короткометражка, семейныйРежиссер: Владимир ПоповВ ролях: Мария ... 9.9 10 18
Info! Золотая раздача, скачанное не засчитывается.
Торрент: Зарегистрирован [2013-09-28 04:14] · скачан: 198 раз
Статус: √ проверено
Размер: 4.37 GB
Как cкачать? Как скачать Трое из Простоквашино через торрент | qTorrent

% Раздел Тема Автор DL S | L
Наши Мультфильмы (HD, WEB-DL 720p, 1080p) [ 1.51 GB ] Трое из Простоквашино Каникулы в Простоквашино Зима в Простоквашино [1978 Мультфильм Короткометражка BDRip 1080p-HEVC 10bit Русский] ADVOKAT69 Скачать
1 | 0
Детские обучающие игры [ 578 MB ] Трое из Простоквашино: Летние каникулы [RepackRUAkella] Shmel Скачать
2 | 0
Короткометражные мультфильмы [ 746 MB ] Трое из Простоквашино [1978-1984г мультфильм короткометражка BDRip-AVC-Hi10P] serg7628 Скачать
3 | 0
Наши мультфильмы [ 695 MB ] Трое из Простоквашино / Трое из Простоквашино [1978 мультфильм короткометражка DVDRip][3 серии из 3] .::}{0TT@БЬ)Ч::. Скачать
1 | 0
Видео для КПК и Смартфонов [ 226 MB ] Трое из Простоквашино DVDRip Страна Скачать
1 | 0
Наши мультфильмы [ 1.37 GB ] Трое из Простоквашино [1978 мультфильм короткометражка HDRip] Lil Badun Скачать
2 | 0

28-11-2019 20:33  

Отключить всю рекламу на сайте

28-09-2013 14:17 Трое из Простоквашино Скачать торрент  

Прикольные мульты! pb.wtf



14-01-2018 08:58 Трое из Простоквашино Скачать торрент  

Шедеврpb.wtf



    Дорогой пользователь! Огромная просьба, поблагодарите релизера, оцените раздачу и оставьте свои комментарий, если Вы скачали Трое из Простоквашино через торрент бесплатно! Внесите свою лепту в развитие PiratBit!
    Комментировать посты могут только пользователи прошедшие не сложную регистрацию
    Показать сообщения:    

    Трое из Простоквашино через торрент
    Скачать бесплатно Трое из Простоквашино
    Трое из Простоквашино скачать торрент
    Трое из Простоквашино смотреть онлайн
    Cкачать фильм Трое из Простоквашино бесплатно
    Трое из Простоквашино скачать торрент в хорошем качестве
    Трое из Простоквашино смотреть онлайн бесплатно в хорошем качестве


    Вы не можете начинать темы
    Вы не можете отвечать на сообщения
    Вы не можете редактировать свои сообщения
    Вы не можете удалять свои сообщения
    Вы не можете голосовать в опросах
    Вы не можете прикреплять файлы к сообщениям
    Вы можете скачивать файлы