Ссылка на приватное зеркало нашего сайта всего за 1$. Внимание количество ограничено!!!

2 сезон

iTunes

1 сезон

1

iTunes

iTunes

iTunes

1 сезон

RePack

30

ИГРА 18+

pack

ВАЖНО

!!Акция!!

Alien_RageХит недели

RePack

MK11
pack

Забери бонус

RePack

jed

!!Акция!!

Alien_Rage

RePack

fifa19

RePack

Assassins Creed: Odyssey

RePack

NEED FOR SPEED™ PAYBACK

4 сезон

9 сезон

Бесстыжие 9 сезон

Все сериалы

все сериалы на PB.wtf

RePack

FAR CRY 5
  

Чак и Ларри: Пожарная свадьба / I Now Pronounce You Chuck & Larry (Деннис Дуган) [2007 г., комедия, BDRip 1080p, Дубляж + Оригинал] pb.wtf

Чак и Ларри: Пожарная свадьба через торрент pb.wtf

Размер: 10.09 GB | Добавлен: 7 лет назад | Торрент скачан:136 раз
Скачать  

28-09-2013 04:29 Чак и Ларри: Пожарная свадьба Скачать торрент  

Чак и Ларри: Пожарная свадьба / I Now Pronounce You Chuck & Larry
Год выпуска: 2007
Страна: США
Жанр: комедия,
Продолжительность: 01:55:22
Перевод: Дубляж + Оригинал
Субтитры: Английские

Режиссер: Деннис Дуган

В ролях: Адам Сэндлер, Кевин Джеймс, Джессика Бил, Дэн Эйкройд, Винг Реймз, Стив Бушеми, Николас Туртурро, Аллен Коверт, Рэйчел Дрэч, Ричард Чемберлен...,

Описание: Два холостых филадельфийских пожарных вляпываются в историю с самыми лучшими намерениями. Вдовец Ларри хочет лишь одного — защитить свою семью. Его приятель Чак также хочет одного — наслаждаться жизнью холостяка.

Чак благодарен Ларри за то, что тот вынес его из огня. А Ларри хочет застраховать свою жизнь так, чтобы страховку получили его дети. Для этого нужно только одно: записать в анкете, например, Чака своей половиной. Об этом вообще никто не должен был знать, так, формальность. И тогда они, гордость своей пожарной команды и верные друзья, решают изобразить из себя гомосексуальную пару, чтобы получить социальные льготы, предназначенные для семейных.

Но когда местный придирчивый чиновник начинает выяснение деталей, «заговор» становится из конфиденциального вопросом номер один для города, попадая на первые страницы газет. Вынужденные изображать из себя влюбленную пару, Чак и Ларри должны теперь пробираться через каскад нелепых и смешных ситуаций.

Качество: BDRip 1080p
Формат: MKV
Видео кодек: H.264
Аудио кодек: DTS
Видео: (1920x1040) 10002 Kbps; 23,976 fps;
Аудио#1: DTS- 6 ch 754 Kbps (RUS) 48.0 KHz (Дубляж)
Аудио#2: DTS-6 ch 1 509 Kbps (Eng) 48.0 KHz (Оригинал)

Общее
Уникальный идентификатор : 227451720571505958678904605587177137313 (0xAB1D9BA2F222628488F8D17F9C1EE4A1)
Полное имя : C:UsersDimazDesktopchuck.larry.2007.BDRip.1080p.mkv
Формат : Matroska
Версия формата : Version 4 / Version 2
Размер файла : 10,1 Гбайт
Продолжительность : 1 ч. 55 м.
Общий поток : 12,5 Мбит/сек
Название фильма : I Now Pronounce You Chuck & Larry by Torrentirk.ru
Дата кодирования : UTC 2013-07-12 01:52:00
Программа кодирования : mkvmerge v6.3.0 ('You can't stop me!') built on Jun 28 2013 20:09:41
Библиотека кодирования : libebml v1.3.0 + libmatroska v1.4.0

Видео
Идентификатор : 1
Формат : AVC
Формат/Информация : Advanced Video Codec
Профиль формата : High@L4.1
Параметр CABAC формата : Да
Параметр ReFrames формата : 4 кадра
Идентификатор кодека : V_MPEG4/ISO/AVC
Продолжительность : 1 ч. 55 м.
Битрейт : 10,3 Мбит/сек
Ширина : 1920 пикселей
Высота : 1040 пикселей
Соотношение сторон : 1,85:1
Режим частоты кадров : Постоянный
Частота кадров : 23,976 кадра/сек
Цветовое пространство : YUV
Субдискретизация насыщенности : 4:2:0
Битовая глубина : 8 бит
Тип развёртки : Прогрессивная
Бит/(Пиксели*Кадры) : 0.214
Размер потока : 8,06 Гбайт (80%)
Заголовок : I Now Pronounce You Chuck & Larry
Библиотека кодирования : x264 core 67 r1153M 7b6ce6a
Настройки программы : cabac=1 / ref=4 / deblock=1:-3:-2 / analyse=0x3:0x113 / me=umh / subme=9 / psy_rd=1.1:0.1 / mixed_ref=1 / me_range=32 / chroma_me=1 / trellis=2 / 8x8dct=1 / cqm=0 / deadzone=21,11 / chroma_qp_offset=-3 / threads=6 / nr=0 / decimate=0 / mbaff=0 / bframes=3 / b_pyramid=1 / b_adapt=2 / b_bias=0 / direct=3 / wpredb=1 / keyint=250 / keyint_min=25 / scenecut=40 / rc=2pass / bitrate=10250 / ratetol=1.0 / qcomp=0.60 / qpmin=10 / qpmax=51 / qpstep=4 / cplxblur=20.0 / qblur=0.5 / vbv_maxrate=50000 / vbv_bufsize=50000 / ip_ratio=1.40 / pb_ratio=1.30 / aq=1:1.00
Язык : English
Default : Да
Forced : Нет

Аудио #1
Идентификатор : 2
Формат : DTS
Формат/Информация : Digital Theater Systems
Режим : 16
Параметр Endianness формата : Big
Идентификатор кодека : A_DTS
Продолжительность : 1 ч. 55 м.
Вид битрейта : Постоянный
Битрейт : 755 Кбит/сек
Каналы : 6 каналов
Расположение каналов : Front: L C R, Side: L R, LFE
Частота : 48,0 КГц
Битовая глубина : 24 бит
Метод сжатия : С потерями
Размер потока : 623 Мбайт (6%)
Заголовок : DTS
Язык : Russian
Default : Да
Forced : Нет

Аудио #2
Идентификатор : 3
Формат : DTS
Формат/Информация : Digital Theater Systems
Режим : 16
Параметр Endianness формата : Big
Идентификатор кодека : A_DTS
Продолжительность : 1 ч. 55 м.
Вид битрейта : Постоянный
Битрейт : 1510 Кбит/сек
Каналы : 6 каналов
Расположение каналов : Front: L C R, Side: L R, LFE
Частота : 48,0 КГц
Битовая глубина : 24 бит
Метод сжатия : С потерями
Размер потока : 1,22 Гбайт (12%)
Заголовок : DTS
Язык : English
Default : Нет
Forced : Нет

Текст
Идентификатор : 4
Формат : UTF-8
Идентификатор кодека : S_TEXT/UTF8
Идентификатор кодека/Информация : UTF-8 Plain Text
Заголовок : Eng
Язык : English
Default : Нет
Forced : Нет

pb.wtf



Скачать Чак и Ларри: Пожарная свадьба через торрент http://pic.kartinco.top/images/4/5buei.jpg Скачать фильм Чак и Ларри: Пожарная свадьба через торрент бесплантно в хорошем качестве Описание: Два холостых филадельфийских пожарных вляпываются в историю с самыми лучшими намерениями. Вдовец Ларри хочет лишь одного — ... 9.9 10 10
Info! Золотая раздача, скачанное не засчитывается.
Торрент: Зарегистрирован [2013-09-28 04:29] · скачан: 136 раз
Статус: √ проверено
Размер: 10.09 GB
Как cкачать? Как скачать Чак и Ларри: Пожарная свадьба через торрент | qTorrent

28-11-2019 20:33  

Отключить всю рекламу на сайте

28-09-2013 09:11 Чак и Ларри: Пожарная свадьба Скачать торрент  

Отличная комедия.pb.wtf



    Дорогой пользователь! Огромная просьба, поблагодарите релизера, оцените раздачу и оставьте свои комментарий, если Вы скачали Чак и Ларри: Пожарная свадьба через торрент бесплатно! Внесите свою лепту в развитие PiratBit!
    Комментировать посты могут только пользователи прошедшие не сложную регистрацию
    Показать сообщения:    

    Чак и Ларри: Пожарная свадьба через торрент
    Скачать бесплатно Чак и Ларри: Пожарная свадьба
    Чак и Ларри: Пожарная свадьба скачать торрент
    Чак и Ларри: Пожарная свадьба смотреть онлайн
    Cкачать фильм Чак и Ларри: Пожарная свадьба бесплатно
    Чак и Ларри: Пожарная свадьба скачать торрент в хорошем качестве
    Чак и Ларри: Пожарная свадьба смотреть онлайн бесплатно в хорошем качестве


    Вы не можете начинать темы
    Вы не можете отвечать на сообщения
    Вы не можете редактировать свои сообщения
    Вы не можете удалять свои сообщения
    Вы не можете голосовать в опросах
    Вы не можете прикреплять файлы к сообщениям
    Вы можете скачивать файлы