Ссылка на приватное зеркало всего за 1$. Внимание количество ограничено!!!

iTunes

1+1

iTunes

мы

WEB-DL

1

iTunes

Чернобыль

iTunes

Ральф против интернета

Лицензия

ПШазам

Лицензия

Оно 2

Лицензия

30
pack

Вам бонус

ВАЖНО

!!Акция!!

Alien_RageХит недели

RePack

Resident Evil 21

ИГРА 18+

pack

RePack

jed

!!Акция!!

Alien_Rage

RePack

fifa19

RePack

Assassins Creed: Odyssey

RePack

NEED FOR SPEED™ PAYBACK

3 сезон

9 сезон

Бесстыжие 9 сезон

Все сериалы

все сериалы на PB.wtf

RePack

FAR CRY 5
Ребята, катастрофически не хватает 1900р. для оплаты серверов за Октябрь (всвязи с блокировками трафик упал в 3 раза), 1-2р., выручайте.
  

Первый рыцарь / First Knight (Джерри Цукер / Jerry Zucker) [ 1995 , США , драма, мелодрама, приключения , HDRip ,DUB] pb.wtf

Первый рыцарь через торрент pb.wtf

Размер: 2.2 GB | Добавлен: 6 лет 2 мес. назад | Торрент скачан:11 раз
Скачать  

28-09-2013 10:14 Первый рыцарь Скачать торрент  

Первый рыцарь / First KnightГод выпуска:1995
Страна: США
Жанр: драма, мелодрама, приключения

Продолжительность: 02:13:44
Перевод: Профессиональный (полное дублирование)

Субтитры: Нет
Режиссер: Джерри Цукер / Jerry Zucker

В ролях: Шон Коннери (King Arthur), Ричард Гир (Lancelot), Джулия Ормонд (Guinevere), Бен Кросс (Prince Malagant), Лиам Каннингэм (Agravaine), Кристофер Вилльерс (Sir Kay), Валентин Пелка (Sir Patrise), Колин МакКормэк (Sir Mador), Ралф Айнесон (Ralf), Джон Гилгуд (Oswald), Стюарт Банс (Peter, King's Stableman), Джейн Роббинс (Elise)
Описание:
Ланселот, воин без страха и упрека, прибыл в золотой замок Камелот, чтобы служить великому королю Артуру. Им предстоят грозные сражения, доблесть и слава.
Но в Камелоте он находит женщину, без которой не может жить, но которой не в силах обладать - прекрасную Гуиневеру Лионесскую. Она - возлюбленная короля Артура, который защищает ее маленькое королевство от войск черного рыцаря Малаганта.
И Первый Рыцарь Ланселот должен сделать выбор - служить своему королю, или предать его во имя любимой...

Рейтинг
kinopoisk.ru: 7.249 (9593)
imdb.com: 5.70 (38 106)
MPAA: PG-13 - Детям до 13 лет просмотр не желателен
Качество: HDRip
Формат: AVI
Видео кодек: XviD
Аудио кодек: AC3
Видео: DivX 4, 720x384 (1.875), 1957 kbps, 23,976 fps, 0,295 bpp
Аудио: AC3 / 5.1 / 48 kHz / 384 kbps / 16 bit© Оформление by ФёдорOFF
General
Complete name : D:раздачиPervyi.Rytsar.1995.DivX.HDRip.avi
Format : AVI
Format/Info : Audio Video Interleave
Format profile : OpenDML
File size : 2.20 GiB
Duration : 2h 13mn
Overall bit rate : 2 353 Kbps
Writing application : VirtualDubMod 1.5.10.2 (build 2540/release)
Writing library : VirtualDubMod build 2540/release

Video
ID : 0
Format : MPEG-4 Visual
Format profile : Advanced Simple@L5
Format settings, BVOP : 1
Format settings, QPel : No
Format settings, GMC : No warppoints
Format settings, Matrix : Default (H.263)
Codec ID : DIVX
Codec ID/Info : Project Mayo
Codec ID/Hint : DivX 4
Duration : 2h 13mn
Bit rate : 1 958 Kbps
Width : 720 pixels
Height : 384 pixels
Display aspect ratio : 1.875
Frame rate : 23.976 fps
Color space : YUV
Chroma subsampling : 4:2:0
Bit depth : 8 bits
Scan type : Progressive
Compression mode : Lossy
Bits/(Pixel*Frame) : 0.295
Stream size : 1.83 GiB (83%)
Writing library : XviD 1.2.1 (UTC 2008-12-04)

Audio
ID : 1
Format : AC-3
Format/Info : Audio Coding 3
Mode extension : CM (complete main)
Codec ID : 2000
Duration : 2h 13mn
Bit rate mode : Constant
Bit rate : 384 Kbps
Channel(s) : 6 channels
Channel positions : Front: L C R, Side: L R, LFE
Sampling rate : 48.0 KHz
Bit depth : 16 bits
Compression mode : Lossy
Stream size : 367 MiB (16%)
Alignment : Split accross interleaves
Interleave, duration : 42 ms (1.00 video frame)
Interleave, preload duration : 500 ms
pb.wtf



Скачать Первый рыцарь через торрент http://i6.imageban.ru/out/2013/09/28/b0c66e8bdfc8a053a0ea7918bd592d3f.jpg Скачать фильм Первый рыцарь через торрент бесплантно в хорошем качестве Описание: Ланселот, воин без страха и упрека, прибыл в золотой замок Камелот, чтобы служить великому королю Артуру. Им предстоят грозные ... 9.6 10 10
Info! Золотая раздача, скачанное не засчитывается.
Торрент: Зарегистрирован [2013-09-28 10:14] · скачан: 11 раз
Статус: √ проверено
Размер: 2.2 GB
Как cкачать? Как скачать Первый рыцарь через торрент | qTorrent

% Раздел Тема Автор DL S | L
Фильмы [HD 720p, 1080p] (Хороший звук DUB, MVO) [ 16.02 GB ] Первый рыцарь / First Knight [1995 BDRip 1080p by msltel] DUB 4 x MVO DVO 2 x AVO msltel Скачать
1 | 0
Фильмы [HD 720p, 1080p] (Хороший звук DUB, MVO) [ 7.14 GB ] Первый рыцарь / First Knight [1995 BDRip 720p by msltel] DUB 4 x MVO DVO 2 x AVO msltel Скачать
1 | 0
Фильмы (Blu-ray, BD-Remux, HDDVD) [ 42.24 GB ] Первый рыцарь / First Knight [1995 Blu-ray CEE 1080p] DUB Russian Mafia Скачать
1 | 0

28-11-2019 20:33  

Отключить всю рекламу на сайте

    Дорогой пользователь! Огромная просьба, поблагодарите релизера, оцените раздачу и оставьте свои комментарий, если Вы скачали Первый рыцарь через торрент бесплатно! Внесите свою лепту в развитие PiratBit!
    Комментировать посты могут только пользователи прошедшие не сложную регистрацию
    Показать сообщения:    

    Первый рыцарь через торрент
    Скачать бесплатно Первый рыцарь
    Первый рыцарь скачать торрент
    Первый рыцарь смотреть онлайн
    Cкачать фильм Первый рыцарь бесплатно
    Первый рыцарь скачать торрент в хорошем качестве
    Первый рыцарь смотреть онлайн бесплатно в хорошем качестве


    Вы не можете начинать темы
    Вы не можете отвечать на сообщения
    Вы не можете редактировать свои сообщения
    Вы не можете удалять свои сообщения
    Вы не можете голосовать в опросах
    Вы не можете прикреплять файлы к сообщениям
    Вы можете скачивать файлы