новый адрес
Ссылка на приватное зеркало всего за 1$. Внимание количество ограничено!!!

iTunes

1+1

iTunes

мы

WEB-DL

1

iTunes

Чернобыль

iTunes

Ральф против интернета

Лицензия

ПШазам

Лицензия

Оно 2

Лицензия

30
pack

Вам бонус

ВАЖНО

!!Акция!!

Alien_RageХит недели

RePack

Resident Evil 21

ИГРА 18+

pack

RePack

jed

!!Акция!!

Alien_Rage

RePack

fifa19

RePack

Assassins Creed: Odyssey

RePack

NEED FOR SPEED™ PAYBACK

3 сезон

9 сезон

Бесстыжие 9 сезон

Все сериалы

все сериалы на PB.wtf

RePack

FAR CRY 5
Ребята, катастрофически не хватает 1900р. для оплаты серверов за Октябрь (всвязи с блокировками трафик упал в 3 раза), 1-2р., выручайте.
  

Взять живым (1982) (1-3 серии из 3) (Вадим Лысенко) [1982 г., военный, DVDRip] pb.wtf

Взять живым через торрент pb.wtf

Качают: 1 [ 0 KB/s ]
Размер: 2.18 GB | Добавлен: 6 лет 2 мес. назад | Торрент скачан:196 раз
Скачать  

28-09-2013 13:27 Взять живым Скачать торрент  

Взять живым (1982) (1-3 серии из 3)
Год выпуска: 1982
Страна: СССР
Производство: Одесская киностудия
Жанр: военный,
Продолжительность: 3~01:07:09
Субтитры: нет

Режиссер: Вадим Лысенко
Сценарий: Вадим Лысенко, Владимир Карпов

Премьера в мире: 3 мая 1983



В ролях: Федор Сухов, Александр Потапов, Игорь Ефимов, Юрий Соловьев, Георгий Назаренко, Александр Игнатуша, Сергей Маковецкий, Александр Беспалый, Анатолий Юрченко, Виктор Павлов...,

Описание: О судьбе солдата Василия Ромашкина, вчерашнего десятиклассника, прошедшего через все испытания Великой Отечественной войны и закончившего боевой путь офицером разведки.

Код:

Обращаюсь к читающему эти строки: давайте предположим, что вы — большой знаток и ценитель такого киножанра, как «фильмы ужасов», пересмотрели на своём веку, скажем, штук 500 ужастиков. И вот в ваши руки попадается совершенно незнакомая лента, снятая в «золотые» для жанра времена, и тема для вас излюбленная — например, похождения зомби по ночному городу, — и актёр хороший снимается в роли вурдалака, и всё такое прочее. В общем, по всем признакам фильм, вроде бы, обещает стать вашим, но… но именно как знаток жанра вы видите — что-то не то, не тянет киношка, не цепляет, и зомби не те, и у вурдалака маска съехала набок… Теперь вопрос: как вы, испытывая пиетет к жанру (актёру, оператору) будете писать (рассказывать) о такой картине? Ведь поругать надо бы, но очень не хочется, а не поругать тоже никак нельзя.Не хочу сказать ничего плохого в адрес большинства актёров — многие из них сыграли просто замечательно. Например, Александр Потапов в роли Куржакова, или Виктор Павлов в роли старшины. Забавно смотрится юный Сергей Маковецкий, исполнивший на заре своей актёрской карьеры роль разведчика Пролеткина.
В заключении хочу посоветовать всем, кто по-настоящему интересуется историей Великой Отечественной войны, почитать НЕЦЕНЗУРИРОВАННЫЕ мемуары лейтенанта с передовой А. Шумилина «Ванька ротный» — по фактам, ощущениям и всему остальному они чуть ли не во всём противоречат обозреваемому здесь фильму. Как небо и земля.
8 из 10 максимум

Качество: DVDRip
Формат: AVI
Видео кодек: DivX
Аудио кодек: MP3
Видео: DivX 5, 688x512, 25fps, 1411 kbps
Аудио#1: русский, MP3 48000Hz stereo 128kbps





General
Complete name : E:ФильмыВоенныеVzyat.zhivim.(1982).DVDRip�1.Vzyat.zhivim.(1982).DVDRip.avi
Format : AVI
Format/Info : Audio Video Interleave
File size : 744 MiB
Duration : 1h 7mn
Overall bit rate : 1 549 Kbps
Director : Xamasas
Writing application : VirtualDubMod 1.5.10.2 (build 2540/release)

Video
ID : 0
Format : MPEG-4 Visual
Format settings, BVOP : Yes
Format settings, QPel : No
Format settings, GMC : No warppoints
Format settings, Matrix : Default (H.263)
Muxing mode : Packed bitstream
Codec ID : DX50
Codec ID/Hint : DivX 5
Duration : 1h 7mn
Bit rate : 1 412 Kbps
Width : 688 pixels
Height : 512 pixels
Display aspect ratio : 4/3
Frame rate : 25.000 fps
Resolution : 24 bits
Colorimetry : 4:2:0
Scan type : Progressive
Bits/(Pixel*Frame) : 0.160
Stream size : 678 MiB (91%)
Writing library : DivX 5.2.1 (WaffleDay) (UTC 2004-09-08)

Audio
ID : 1
Format : MPEG Audio
Format version : Version 1
Format profile : Layer 3
Codec ID : 55
Codec ID/Hint : MP3
Duration : 1h 7mn
Bit rate mode : Constant
Bit rate : 128 Kbps
Channel(s) : 2 channels
Sampling rate : 48.0 KHz
Resolution : 16 bits
Stream size : 61.5 MiB (8%)
Alignment : Aligned on interleaves
Interleave, duration : 40 ms (1.00 video frame)
Interleave, preload duration : 504 ms

[/code]

pb.wtf



Скачать Взять живым через торрент http://pic.kartinco.top/images/4/y93we.jpg Скачать фильм Взять живым через торрент бесплантно в хорошем качестве Описание: О судьбе солдата Василия Ромашкина, вчерашнего десятиклассника, прошедшего через все испытания Великой Отечественной войны и ... 10 10 10
Info! Золотая раздача, скачанное не засчитывается.
Торрент: Зарегистрирован [2013-09-28 13:27] · скачан: 196 раз
Статус: √ проверено
Размер: 2.18 GB
Как cкачать? Как скачать Взять живым через торрент | qTorrent

% Раздел Тема Автор DL S | L
Кино СССР [ 2.91 GB ] Взять живым [1982 СССР военный DVDRip-AVC от AVP Studio] AVP Studio Скачать
1 | 0
Кино СССР [ 1.46 GB ] Взять живым [1982 СССР военный DVDRip от AVP Studio] AVP Studio Скачать
1 | 0
Кино СССР [ 2.91 GB ] Взять живым [1982 СССР военный DVDRip от AVP Studio] AVP Studio Скачать
1 | 0

28-11-2019 20:33  

Отключить всю рекламу на сайте


    Дорогой пользователь! Огромная просьба, поблагодарите релизера, оцените раздачу и оставьте свои комментарий, если Вы скачали Взять живым через торрент бесплатно! Внесите свою лепту в развитие PiratBit!
    Комментировать посты могут только пользователи прошедшие не сложную регистрацию
    Показать сообщения:    

    Взять живым через торрент
    Скачать бесплатно Взять живым
    Взять живым скачать торрент
    Взять живым смотреть онлайн
    Cкачать фильм Взять живым бесплатно
    Взять живым скачать торрент в хорошем качестве
    Взять живым смотреть онлайн бесплатно в хорошем качестве


    Вы не можете начинать темы
    Вы не можете отвечать на сообщения
    Вы не можете редактировать свои сообщения
    Вы не можете удалять свои сообщения
    Вы не можете голосовать в опросах
    Вы не можете прикреплять файлы к сообщениям
    Вы можете скачивать файлы