Мега распродажа FORZA HORIZON 4 ULTIMATE+ВСЕ DLC+ОНЛАЙН всего за 499р. 349 руб. (супер цена). Внимание количество ограничено!!!

iTunes

1+1

iTunes

мы

iTunes

1

1 сезон

Чернобыль

1 сезон

Ральф против интернета

Лицензия

ПШазам

8 сезон

Игра престолов

Лицензия

30
pack

ВАЖНО

!!Акция!!

Alien_RageХит недели

RePack

Resident Evil 21

ИГРА 18+

pack

RePack

Metro:Exodus

!!Акция!!

Alien_Rage

RePack

fifa19

RePack

Assassins Creed: Odyssey

RePack

NEED FOR SPEED™ PAYBACK

3 сезон

9 сезон

Бесстыжие 9 сезон

Все сериалы

все сериалы на PB.wtf

RePack

FAR CRY 5
Ребята, катастрофически не хватает 2730р. для оплаты серверов за ИЮНЬ (всвязи с блокировками трафик упал в 3 раза), 1-2р., выручайте.
  

Фанат / The Fan (Тони Скотт / Tony Scott) [1996 г., триллер, драма, спорт, HDTVRip 720p, Профессиональный + Оригинал] pb.wtf

Фанат через торрент pb.wtf

Размер: 6.59 GB | Добавлен: 5 лет 9 мес. назад | Торрент скачан:20 раз
Скачать  

29-09-2013 03:32 Фанат Скачать торрент  

Фанат / The Fan
Год выпуска: 1996
Страна: США
Слоган: «У всех фанатов есть главный фаворит. У фаворита - есть главная цель.»
Жанр: триллер, драма, спорт

Продолжительность: 01:51:58

Перевод:
Профессиональный (двухголосый)
Профессиональный (многоголосый, закадровый)
Авторский (Гаврилов Андрей)
Авторский (Живов Юрий)
Оригинальный
Субтитры: Русские, UTF-8

Режиссер: Тони Скотт / Tony Scott
Сценарий: Фоеф Саттон / Phoef Sutton, Питер Абрахамс / Peter Abrahams
Продюсер: Венди Файнерман / Wendy Finerman, Маргарет Френч Исаак / Margaret French Isaac, Грег Мурадиан / Greg Mooradian, Барри М. Осборн / Barrie M. Osborne, Джеймс В. Скотчдопоул / James W. Skotchdopole

Роберт Де Ниро (Gil Renard), Уэсли Снайпс (Bobby Rayburn), Эллен Баркин (Jewel Stern), Джон Легуизамо (Manny), Бенисио Дель Торо (Juan Primo), Патти Д’Арбанвиль (Ellen Renard), Крис Малки (Tim), Эндрю Дж. Ферчланд (Richie Renard), Брэндон Хэммонд (Sean Rayburn), Чарльз Хэллахан (Coop), Дэн Батлер (Garrity), Курт Фуллер (Bernie)

Описание:Звезда бейсбола Бобби Рейберн переходит в команду «San Francisco Giants». Теперь он находится под пристальным вниманием не только репортеров и телекамер, но и маниакально любящего бейсбол Джила Рейнарда, болеющего за «Giants». И когда в новой команде дела у Бобби идут из рук вон плохо, Джил решает принять меры...

Рейтинг
kinopoisk.ru: 7.118 (3698)
imdb.com: 5.70 (29 374)
MPAA: R - Лицам до 17 лет обязательно присутствие взрослого

Качество: HDTVRip
Формат: MKV
Видео кодек: AVC
Аудио кодек: AC3
Видео: 6184 Кбит/сек, 1280*544 (2,35:1), в 25,000 кадров/сек, AVC
Аудио №1: русский / AC3 / 5.1 / 48 kHz / 448 kbps / 16 bit
Аудио №2: русский / AC3 / 5.1 / 48 kHz / 448 kbps / 16 bit
Аудио №3: русский / AC3 / 5.1 / 48 kHz / 448 kbps / 16 bit
Аудио №4: русский / AC3 / 5.1 / 48 kHz / 448 kbps / 16 bit
Аудио №5: английский / AC3 / 5.1 / 48 kHz / 448 kbps / 16 bit



Общее
Кол-во : 284
Кол-во потоков такого типа : 1
Тип потока : General
Тип потока : Общее
Идентификатор типа потока : 0
Inform : Matroska: 6,59 Гбайт, 1 ч. 51 м.
Уникальный идентификатор : 171858891576337656653128725685961563968
Уникальный идентификатор : 171858891576337656653128725685961563968 (0x814AD18C778F59CBA1AB61FC76491F40)
Кол-во видеопотоков : 1
Кол-во аудиопотоков : 5
Кол-во текстовых потоков : 1
Video_Format_List : AVC
Video_Format_WithHint_List : AVC
Видеокодеки : AVC
Video_Language_List : English
Audio_Format_List : AC-3 / AC-3 / AC-3 / AC-3 / AC-3
Audio_Format_WithHint_List : AC-3 / AC-3 / AC-3 / AC-3 / AC-3
Аудиокодеки : AC3 / AC3 / AC3 / AC3 / AC3
Audio_Language_List : Russian / Russian / Russian / Russian / English
Text_Format_List : UTF-8
Text_Format_WithHint_List : UTF-8
Текстовые кодеки : UTF-8
Text_Language_List : Russian
Полное имя : H:ТОРРЕНТЫФанат.mkv
Имя папки : H:ТОРРЕНТЫ
Имя файла : Фанат
Расширение : mkv
Формат : Matroska
Формат : Matroska
Формат/Ссылка : http://packs.matroska.org/
Формат/Используется в : mkv mk3d mka mks
Коммерческое название : Matroska
Версия формата : Version 2
Кодек : Matroska
Кодек : Matroska
Кодек/Ссылка : http://packs.matroska.org/
Кодек/Используется в : mkv mk3d mka mks
Размер файла : 7075969770
Размер файла : 6,59 Гбайт
Размер файла : 7 Гбайт
Размер файла : 6,6 Гбайт
Размер файла : 6,59 Гбайт
Размер файла : 6,590 Гбайт
Продолжительность : 6718752
Продолжительность : 1 ч. 51 м.
Продолжительность : 1 ч. 51 м. 58 с. 752 мс.
Продолжительность : 1 ч. 51 м.
Продолжительность : 01:51:58.752
Общий поток : 8425338
Общий поток : 8425 Кбит/сек
Размер потока : 140805979
Размер потока : 134 Мбайт (2%)
Размер потока : 134 Мбайт
Размер потока : 134 Мбайт
Размер потока : 134 Мбайт
Размер потока : 134,3 Мбайт
Размер потока : 134 Мбайт (2%)
Пропорции потока : 0.01990
Дата кодирования : UTC 2011-12-06 19:00:06
Дата файла : UTC 2013-09-29 02:10:32.632
Дата файла (местная) : 2013-09-29 09:10:32.632
Дата изменения файла : UTC 2013-09-29 03:04:03.996
Дата изменения файла (местная) : 2013-09-29 10:04:03.996
Программа кодирования : mkvmerge v4.4.0 ('Die Wiederkehr') сборка от Oct 31 2010 21:52:48
Библиотека кодирования : libebml v1.0.0 + libmatroska v1.0.0
Библиотека кодирования : libebml v1.0.0 + libmatroska v1.0.0

Видео
Кол-во : 263
Кол-во потоков такого типа : 1
Тип потока : Video
Тип потока : Видео
Идентификатор типа потока : 0
StreamOrder : 0
Inform : English, 6184 Кбит/сек, 1280*544 (2,35:1), в 25,000 кадров/сек, AVC (High@L4.1) (CABAC / 9 Ref Frames)
Идентификатор : 1
Идентификатор : 1
Уникальный идентификатор : 1
Формат : AVC
Формат/Информация : Advanced Video Codec
Формат/Ссылка : http://developers.videolan.org/x264.html
Коммерческое название : AVC
Профиль формата : High@L4.1
Настройки формата : CABAC / 9 Ref Frames
Параметр CABAC формата : Yes
Параметр CABAC формата : Да
Параметр ReFrames формата : 9
Параметр ReFrames формата : 9 кадров
Интернет-тип носителя : video/H264
Идентификатор кодека : V_MPEG4/ISO/AVC
Идентификатор кодека/Ссылка : http://ffdshow-tryout.sourceforge.net/
Кодек : V_MPEG4/ISO/AVC
Кодек : AVC
Кодек/Семейство : AVC
Кодек/Информация : Advanced Video Codec
Кодек/Ссылка : http://ffdshow-tryout.sourceforge.net/
Профиль кодека : High@L4.1
Настройки кодека : CABAC / 9 Ref Frames
Параметр CABAC кодека : Yes
Codec_Settings_RefFrames : 9
Продолжительность : 6718760
Продолжительность : 1 ч. 51 м.
Продолжительность : 1 ч. 51 м. 58 с. 760 мс.
Продолжительность : 1 ч. 51 м.
Продолжительность : 01:51:58.760
Битрейт : 6184000
Битрейт : 6184 Кбит/сек
Ширина : 1280
Ширина : 1280 пикселей
Высота : 544
Высота : 544 пикселя
Пропорции пикселя : 1.000
Соотношение сторон : 2.353
Соотношение сторон : 2,35:1
Режим частоты кадров : CFR
Режим частоты кадров : Постоянный
Частота кадров : 25.000
Частота кадров : 25,000 кадров/сек
Счётчик кадров : 167969
Разрешение : 8
Разрешение : 8 бит
Колориметрия : 4:2:0
Цветовое пространство : YUV
Субдискретизация насыщенности : 4:2:0
Битовая глубина : 8
Битовая глубина : 8 бит
Тип развёртки : Progressive
Тип развёртки : Прогрессивная
Переплетение : PPF
Переплетение : Прогрессивная
Бит/(Пиксели*Кадры) : 0.355
Задержка : 0
Задержка : 00:00:00.000
Задержка в оригинале : Container
Задержка в оригинале : Контейнер
Размер потока : 5053913231
Размер потока : 4,71 Гбайт (71%)
Размер потока : 5 Гбайт
Размер потока : 4,7 Гбайт
Размер потока : 4,71 Гбайт
Размер потока : 4,707 Гбайт
Размер потока : 4,71 Гбайт (71%)
Пропорции потока : 0.71424
Библиотека кодирования : x264 - core 119 r2106 07efeb4
Библиотека кодирования : x264 core 119 r2106 07efeb4
Библиотека кодирования/Имя : x264
Библиотека кодирования/Version : core 119 r2106 07efeb4
Настройки программы : cabac=1 / ref=9 / deblock=1:-2:-3 / analyse=0x3:0x133 / me=umh / subme=10 / psy=1 / psy_rd=1.00:0.00 / mixed_ref=1 / me_range=32 / chroma_me=1 / trellis=2 / 8x8dct=1 / cqm=0 / deadzone=21,11 / fast_pskip=1 / chroma_qp_offset=-2 / threads=6 / sliced_threads=0 / nr=0 / decimate=1 / interlaced=0 / bluray_compat=0 / constrained_intra=0 / bframes=6 / b_pyramid=2 / b_adapt=2 / b_bias=0 / direct=3 / weightb=1 / open_gop=0 / weightp=2 / keyint=250 / keyint_min=25 / scenecut=40 / intra_refresh=0 / rc_lookahead=40 / rc=2pass / mbtree=1 / bitrate=6184 / ratetol=1.0 / qcomp=0.60 / qpmin=10 / qpmax=51 / qpstep=4 / cplxblur=20.0 / qblur=0.5 / vbv_maxrate=50000 / vbv_bufsize=50000 / nal_hrd=none / ip_ratio=1.40 / aq=1:1.00
Язык : en
Язык : English
Язык : English
Язык : en
Язык : eng
Язык : en
Default : Yes
Default : Да
Forced : Yes
Forced : Да

Аудио #1
Кол-во : 252
Кол-во потоков такого типа : 5
Тип потока : Audio
Тип потока : Аудио
Идентификатор типа потока : 0
Позиция идентификатора типа потока : 1
StreamOrder : 1
Inform : Russian, 448 Кбит/сек, 48,0 КГц, 16 бит, 6 каналов, AC-3
Идентификатор : 2
Идентификатор : 2
Уникальный идентификатор : 1689336211
Формат : AC-3
Формат/Информация : Audio Coding 3
Коммерческое название : AC-3
Расширение режима : CM (complete main)
Параметр Endianness формата : Big
Идентификатор кодека : A_AC3
Кодек : AC3
Кодек : AC3
Кодек/Семейство : AC3
Кодек/Информация : Dolby AC3
Продолжительность : 6718752
Продолжительность : 1 ч. 51 м.
Продолжительность : 1 ч. 51 м. 58 с. 752 мс.
Продолжительность : 1 ч. 51 м.
Продолжительность : 01:51:58.752
Вид битрейта : CBR
Вид битрейта : Постоянный
Битрейт : 448000
Битрейт : 448 Кбит/сек
Каналы : 6
Каналы : 6 каналов
Расположение каналов : Front: L C R, Side: L R, LFE
Расположение каналов : 3/2/0.1
Частота : 48000
Частота : 48,0 КГц
Количество образцов : 322500096
Разрешение : 16
Разрешение : 16 бит
Битовая глубина : 16
Битовая глубина : 16 бит
Метод сжатия : Lossy
Метод сжатия : С потерями
Задержка : 0
Задержка : 00:00:00.000
Задержка в оригинале : Container
Задержка в оригинале : Контейнер
Задержка видео : 0
Задержка видео : 0
Размер потока : 376250112
Размер потока : 359 Мбайт (5%)
Размер потока : 359 Мбайт
Размер потока : 359 Мбайт
Размер потока : 359 Мбайт
Размер потока : 358,8 Мбайт
Размер потока : 359 Мбайт (5%)
Пропорции потока : 0.05317
Заголовок : MVO
Язык : ru
Язык : Russian
Язык : Russian
Язык : ru
Язык : rus
Язык : ru
Default : Yes
Default : Да
Forced : Yes
Forced : Да
bsid : 8
dialnorm : -31
dialnorm/String : -31 dB
compr : -0.28
compr/String : -0.28 dB
dynrng : -0.86
dynrng/String : -0.86 dB
acmod : 7
lfeon : 1
dialnorm_Average : -31
dialnorm_Average/String : -31 dB
dialnorm_Minimum : -31
dialnorm_Minimum/String : -31 dB
dialnorm_Maximum : -31
dialnorm_Maximum/String : -31 dB
dialnorm_Count : 2
compr_Average : -0.28
compr_Average/String : -0.28 dB
compr_Minimum : -0.28
compr_Minimum/String : -0.28 dB
compr_Maximum : -0.28
compr_Maximum/String : -0.28 dB
compr_Count : 2
dynrng_Average : -0.86
dynrng_Average/String : -0.86 dB
dynrng_Minimum : -0.86
dynrng_Minimum/String : -0.86 dB
dynrng_Maximum : -0.86
dynrng_Maximum/String : -0.86 dB
dynrng_Count : 2

Аудио #2
Кол-во : 252
Кол-во потоков такого типа : 5
Тип потока : Audio
Тип потока : Аудио
Идентификатор типа потока : 1
Позиция идентификатора типа потока : 2
StreamOrder : 2
Inform : Russian, 448 Кбит/сек, 48,0 КГц, 16 бит, 6 каналов, AC-3
Идентификатор : 3
Идентификатор : 3
Уникальный идентификатор : 2398983352
Формат : AC-3
Формат/Информация : Audio Coding 3
Коммерческое название : AC-3
Расширение режима : CM (complete main)
Параметр Endianness формата : Big
Идентификатор кодека : A_AC3
Кодек : AC3
Кодек : AC3
Кодек/Семейство : AC3
Кодек/Информация : Dolby AC3
Продолжительность : 6718752
Продолжительность : 1 ч. 51 м.
Продолжительность : 1 ч. 51 м. 58 с. 752 мс.
Продолжительность : 1 ч. 51 м.
Продолжительность : 01:51:58.752
Вид битрейта : CBR
Вид битрейта : Постоянный
Битрейт : 448000
Битрейт : 448 Кбит/сек
Каналы : 6
Каналы : 6 каналов
Расположение каналов : Front: L C R, Side: L R, LFE
Расположение каналов : 3/2/0.1
Частота : 48000
Частота : 48,0 КГц
Количество образцов : 322500096
Разрешение : 16
Разрешение : 16 бит
Битовая глубина : 16
Битовая глубина : 16 бит
Метод сжатия : Lossy
Метод сжатия : С потерями
Задержка : 0
Задержка : 00:00:00.000
Задержка в оригинале : Container
Задержка в оригинале : Контейнер
Задержка видео : 0
Задержка видео : 0
Размер потока : 376250112
Размер потока : 359 Мбайт (5%)
Размер потока : 359 Мбайт
Размер потока : 359 Мбайт
Размер потока : 359 Мбайт
Размер потока : 358,8 Мбайт
Размер потока : 359 Мбайт (5%)
Пропорции потока : 0.05317
Заголовок : West Video
Язык : ru
Язык : Russian
Язык : Russian
Язык : ru
Язык : rus
Язык : ru
Default : No
Default : Нет
Forced : No
Forced : Нет
bsid : 8
dialnorm : -31
dialnorm/String : -31 dB
compr : -0.28
compr/String : -0.28 dB
dynrng : -0.86
dynrng/String : -0.86 dB
acmod : 7
lfeon : 1
dialnorm_Average : -31
dialnorm_Average/String : -31 dB
dialnorm_Minimum : -31
dialnorm_Minimum/String : -31 dB
dialnorm_Maximum : -31
dialnorm_Maximum/String : -31 dB
dialnorm_Count : 2
compr_Average : -0.28
compr_Average/String : -0.28 dB
compr_Minimum : -0.28
compr_Minimum/String : -0.28 dB
compr_Maximum : -0.28
compr_Maximum/String : -0.28 dB
compr_Count : 2
dynrng_Average : -0.86
dynrng_Average/String : -0.86 dB
dynrng_Minimum : -0.86
dynrng_Minimum/String : -0.86 dB
dynrng_Maximum : -0.86
dynrng_Maximum/String : -0.86 dB
dynrng_Count : 2

Аудио #3
Кол-во : 252
Кол-во потоков такого типа : 5
Тип потока : Audio
Тип потока : Аудио
Идентификатор типа потока : 2
Позиция идентификатора типа потока : 3
StreamOrder : 3
Идентификатор : 4
Идентификатор : 4
Уникальный идентификатор : 1437407149
Формат : AC-3
Формат/Информация : Audio Coding 3
Коммерческое название : AC-3
Расширение режима : CM (complete main)
Параметр Endianness формата : Big
Идентификатор кодека : A_AC3
Кодек : AC3
Кодек : AC3
Кодек/Семейство : AC3
Кодек/Информация : Dolby AC3
Продолжительность : 6718752
Продолжительность : 1 ч. 51 м.
Продолжительность : 1 ч. 51 м. 58 с. 752 мс.
Продолжительность : 1 ч. 51 м.
Продолжительность : 01:51:58.752
Вид битрейта : CBR
Вид битрейта : Постоянный
Битрейт : 448000
Битрейт : 448 Кбит/сек
Каналы : 6
Каналы : 6 каналов
Расположение каналов : Front: L C R, Side: L R, LFE
Расположение каналов : 3/2/0.1
Частота : 48000
Частота : 48,0 КГц
Количество образцов : 322500096
Разрешение : 16
Разрешение : 16 бит
Битовая глубина : 16
Битовая глубина : 16 бит
Метод сжатия : Lossy
Метод сжатия : С потерями
Задержка : 0
Задержка : 00:00:00.000
Задержка в оригинале : Container
Задержка в оригинале : Контейнер
Задержка видео : 0
Задержка видео : 0
Размер потока : 376250112
Размер потока : 359 Мбайт (5%)
Размер потока : 359 Мбайт
Размер потока : 359 Мбайт
Размер потока : 359 Мбайт
Размер потока : 358,8 Мбайт
Размер потока : 359 Мбайт (5%)
Пропорции потока : 0.05317
Заголовок : Ю.Живов
Язык : ru
Язык : Russian
Язык : Russian
Язык : ru
Язык : rus
Язык : ru
Default : No
Default : Нет
Forced : No
Forced : Нет
bsid : 8
dialnorm : -31
dialnorm/String : -31 dB
compr : -0.28
compr/String : -0.28 dB
dynrng : -0.86
dynrng/String : -0.86 dB
acmod : 7
lfeon : 1
dialnorm_Average : -31
dialnorm_Average/String : -31 dB
dialnorm_Minimum : -31
dialnorm_Minimum/String : -31 dB
dialnorm_Maximum : -31
dialnorm_Maximum/String : -31 dB
dialnorm_Count : 2
compr_Average : -0.28
compr_Average/String : -0.28 dB
compr_Minimum : -0.28
compr_Minimum/String : -0.28 dB
compr_Maximum : -0.28
compr_Maximum/String : -0.28 dB
compr_Count : 2
dynrng_Average : -0.86
dynrng_Average/String : -0.86 dB
dynrng_Minimum : -0.86
dynrng_Minimum/String : -0.86 dB
dynrng_Maximum : -0.86
dynrng_Maximum/String : -0.86 dB
dynrng_Count : 2

Аудио #4
Кол-во : 252
Кол-во потоков такого типа : 5
Тип потока : Audio
Тип потока : Аудио
Идентификатор типа потока : 3
Позиция идентификатора типа потока : 4
StreamOrder : 4
Идентификатор : 5
Идентификатор : 5
Уникальный идентификатор : 3714791578
Формат : AC-3
Формат/Информация : Audio Coding 3
Коммерческое название : AC-3
Расширение режима : CM (complete main)
Параметр Endianness формата : Big
Идентификатор кодека : A_AC3
Кодек : AC3
Кодек : AC3
Кодек/Семейство : AC3
Кодек/Информация : Dolby AC3
Продолжительность : 6718752
Продолжительность : 1 ч. 51 м.
Продолжительность : 1 ч. 51 м. 58 с. 752 мс.
Продолжительность : 1 ч. 51 м.
Продолжительность : 01:51:58.752
Вид битрейта : CBR
Вид битрейта : Постоянный
Битрейт : 448000
Битрейт : 448 Кбит/сек
Каналы : 6
Каналы : 6 каналов
Расположение каналов : Front: L C R, Side: L R, LFE
Расположение каналов : 3/2/0.1
Частота : 48000
Частота : 48,0 КГц
Количество образцов : 322500096
Разрешение : 16
Разрешение : 16 бит
Битовая глубина : 16
Битовая глубина : 16 бит
Метод сжатия : Lossy
Метод сжатия : С потерями
Задержка : 0
Задержка : 00:00:00.000
Задержка в оригинале : Container
Задержка в оригинале : Контейнер
Задержка видео : 0
Задержка видео : 0
Размер потока : 376250112
Размер потока : 359 Мбайт (5%)
Размер потока : 359 Мбайт
Размер потока : 359 Мбайт
Размер потока : 359 Мбайт
Размер потока : 358,8 Мбайт
Размер потока : 359 Мбайт (5%)
Пропорции потока : 0.05317
Заголовок : А.Гаврилов
Язык : ru
Язык : Russian
Язык : Russian
Язык : ru
Язык : rus
Язык : ru
Default : No
Default : Нет
Forced : No
Forced : Нет
bsid : 8
dialnorm : -31
dialnorm/String : -31 dB
compr : -0.28
compr/String : -0.28 dB
dynrng : -0.86
dynrng/String : -0.86 dB
acmod : 7
lfeon : 1
dialnorm_Average : -31
dialnorm_Average/String : -31 dB
dialnorm_Minimum : -31
dialnorm_Minimum/String : -31 dB
dialnorm_Maximum : -31
dialnorm_Maximum/String : -31 dB
dialnorm_Count : 2
compr_Average : -0.28
compr_Average/String : -0.28 dB
compr_Minimum : -0.28
compr_Minimum/String : -0.28 dB
compr_Maximum : -0.28
compr_Maximum/String : -0.28 dB
compr_Count : 2
dynrng_Average : -0.86
dynrng_Average/String : -0.86 dB
dynrng_Minimum : -0.86
dynrng_Minimum/String : -0.86 dB
dynrng_Maximum : -0.86
dynrng_Maximum/String : -0.86 dB
dynrng_Count : 2

Аудио #5
Кол-во : 252
Кол-во потоков такого типа : 5
Тип потока : Audio
Тип потока : Аудио
Идентификатор типа потока : 4
Позиция идентификатора типа потока : 5
StreamOrder : 5
Идентификатор : 6
Идентификатор : 6
Уникальный идентификатор : 3449436805
Формат : AC-3
Формат/Информация : Audio Coding 3
Коммерческое название : AC-3
Расширение режима : CM (complete main)
Параметр Endianness формата : Big
Идентификатор кодека : A_AC3
Кодек : AC3
Кодек : AC3
Кодек/Семейство : AC3
Кодек/Информация : Dolby AC3
Продолжительность : 6718752
Продолжительность : 1 ч. 51 м.
Продолжительность : 1 ч. 51 м. 58 с. 752 мс.
Продолжительность : 1 ч. 51 м.
Продолжительность : 01:51:58.752
Вид битрейта : CBR
Вид битрейта : Постоянный
Битрейт : 448000
Битрейт : 448 Кбит/сек
Каналы : 6
Каналы : 6 каналов
Расположение каналов : Front: L C R, Side: L R, LFE
Расположение каналов : 3/2/0.1
Частота : 48000
Частота : 48,0 КГц
Количество образцов : 322500096
Разрешение : 16
Разрешение : 16 бит
Битовая глубина : 16
Битовая глубина : 16 бит
Метод сжатия : Lossy
Метод сжатия : С потерями
Задержка : 0
Задержка : 00:00:00.000
Задержка в оригинале : Container
Задержка в оригинале : Контейнер
Задержка видео : 0
Задержка видео : 0
Размер потока : 376250112
Размер потока : 359 Мбайт (5%)
Размер потока : 359 Мбайт
Размер потока : 359 Мбайт
Размер потока : 359 Мбайт
Размер потока : 358,8 Мбайт
Размер потока : 359 Мбайт (5%)
Пропорции потока : 0.05317
Язык : en
Язык : English
Язык : English
Язык : en
Язык : eng
Язык : en
Default : No
Default : Нет
Forced : No
Forced : Нет
bsid : 8
dialnorm : -31
dialnorm/String : -31 dB
compr : -0.28
compr/String : -0.28 dB
dynrng : -0.86
dynrng/String : -0.86 dB
acmod : 7
lfeon : 1
dialnorm_Average : -31
dialnorm_Average/String : -31 dB
dialnorm_Minimum : -31
dialnorm_Minimum/String : -31 dB
dialnorm_Maximum : -31
dialnorm_Maximum/String : -31 dB
dialnorm_Count : 2
compr_Average : -0.28
compr_Average/String : -0.28 dB
compr_Minimum : -0.28
compr_Minimum/String : -0.28 dB
compr_Maximum : -0.28
compr_Maximum/String : -0.28 dB
compr_Count : 2
dynrng_Average : -0.86
dynrng_Average/String : -0.86 dB
dynrng_Minimum : -0.86
dynrng_Minimum/String : -0.86 dB
dynrng_Maximum : -0.86
dynrng_Maximum/String : -0.86 dB
dynrng_Count : 2

Текст
Кол-во : 195
Кол-во потоков такого типа : 1
Тип потока : Text
Тип потока : Текст
Идентификатор типа потока : 0
StreamOrder : 6
Inform : Russian, UTF-8
Идентификатор : 7
Идентификатор : 7
Уникальный идентификатор : 559492262
Формат : UTF-8
Коммерческое название : UTF-8
Идентификатор кодека : S_TEXT/UTF8
Идентификатор кодека/Информация : UTF-8 Plain Text
Кодек : S_TEXT/UTF8
Кодек : UTF-8
Кодек/Информация : UTF-8 Plain Text
Язык : ru
Язык : Russian
Язык : Russian
Язык : ru
Язык : rus
Язык : ru
Default : No
Default : Нет
Forced : No
Forced : Нет



pb.wtf



Скачать Фанат через торрент http://s001.radikal.ru/i194/1309/66/09ea282cead5.jpg Скачать фильм Фанат через торрент бесплантно в хорошем качестве Описание:Звезда бейсбола Бобби Рейберн переходит в команду «San Francisco Giants». Теперь он находится под пристальным вниманием не только ... 9.3 10 9
Info! Золотая раздача, скачанное не засчитывается.
Торрент: Зарегистрирован [2013-09-29 03:32] · скачан: 20 раз
Статус: √ проверено
Размер: 6.59 GB
Как cкачать? Как скачать Фанат через торрент | qTorrent

% Раздел Тема Автор DL S | L
Фильмы (WEB-DL 720p, 1080p) [ 6.59 GB ] Фанат / The Fan [1996 HDTVRip 720 flatro1 Скачать
1 | 0


Последний раз редактировалось: GEKADOL (2013-09-29 03:59), всего редактировалось 1 раз


>> Регистрируемся здесь <<






Отзывы и комментарии о схеме читаем и пишем здесь: ---> Отзывы и комментарии о схеме

Новые благодарочки в телеграм довольных пользователей:
скриншот   скриншот   скриншот   скриншот   скриншот

29-09-2013 03:56 Фанат Скачать торрент  

Фильм шикарный!!! Кто не смотрел советую! Да в принципе и кто смотрел можно ещё посмотреть pb.wtf



29-09-2013 03:58 Фанат Скачать торрент  

На золото не хватает ни как накопить не могу pb.wtf



    Дорогой пользователь! Огромная просьба, поблагодарите релизера, оцените раздачу и оставьте свои комментарий, если Вы скачали Фанат через торрент бесплатно! Внесите свою лепту в развитие PiratBit!
    Комментировать посты могут только пользователи прошедшие не сложную регистрацию
    Показать сообщения:    

    Фанат через торрент
    Скачать бесплатно Фанат
    Фанат скачать торрент
    Фанат смотреть онлайн
    Cкачать фильм Фанат бесплатно
    Фанат скачать торрент в хорошем качестве
    Фанат смотреть онлайн бесплатно в хорошем качестве


    Вы не можете начинать темы
    Вы не можете отвечать на сообщения
    Вы не можете редактировать свои сообщения
    Вы не можете удалять свои сообщения
    Вы не можете голосовать в опросах
    Вы не можете прикреплять файлы к сообщениям
    Вы можете скачивать файлы