Мега распродажа FORZA HORIZON 4 ULTIMATE+ВСЕ DLC+ОНЛАЙН всего за 499р. 349 руб. (супер цена). Внимание количество ограничено!!!

Лицензия

30

iTunes

мы

iTunes

1

1 сезон

Чернобыль

1 сезон

Ральф против интернета

MVO

Покемон. Детектив Пикачу

8 сезон

Игра престолов

iTunes

1+1

ИГРА 18+

pack

ВАЖНО

!!Акция!!

Alien_RageХит недели

RePack

Resident Evil 21
pack

RePack

Metro:Exodus

!!Акция!!

Alien_Rage

RePack

fifa19

RePack

Assassins Creed: Odyssey

RePack

NEED FOR SPEED™ PAYBACK

3 сезон

9 сезон

Бесстыжие 9 сезон

Все сериалы

все сериалы на PB.wtf

RePack

FAR CRY 5
Ребята, катастрофически не хватает 2730р. для оплаты серверов за МАЙ (всвязи с блокировками трафик упал в 3 раза), 1-2р., выручайте.
  

Фанаты / Fanboys (Кайл Ньюман / Kyle Newman) [ 2009 , США , драма, комедия, приключения , DVDRip ,Профессиональный двухголосый] pb.wtf

Фанаты через торрент pb.wtf

Размер: 1.36 GB | Добавлен: 5 лет 8 мес. назад | Торрент скачан:68 раз
Скачать  

29-09-2013 05:57 Фанаты Скачать торрент  

Фанаты / FanboysГод выпуска:2009
Страна: США
Жанр: драма, комедия, приключения

Продолжительность: 01:29:42
Перевод: Профессиональный (двухголосый)

Субтитры: Нет
Режиссер: Кайл Ньюман / Kyle Newman

В ролях: Джей Барушель (Windows), Дэн Фоглер (Hutch), Сэм Хантингтон (Eric), Крис Маркетт (Linus), Кристен Белл (Zoe), Сет Роген (Admiral Seasholtz / Alien / Roach), Дэвид Денман (Chaz), Кристофер МакДональд (Big Chuck), Билли Ди Уильямс (Judge Reinhold), Дэнни Трехо (The Chief), Итан Сапли (Harry Knowles), Чарли Б. Браун (Myron)
Описание:
В 1998 году пятеро фанатов «Звездных войн» отправляются на Ранчо «Скайуокер», чтобы стащить раннюю копию «Эпизода I - Скрытая угроза» и посмотреть ее первыми. По дороге друзей ждет множество приключений, им придется надеть скафандры их любимых киногероев, применить лазерные мечи и использовать сверхзвуковую скорость.
Рейтинг
kinopoisk.ru: 6.675 (3322)
imdb.com: 6.60 (38 079)
MPAA: PG-13 - Детям до 13 лет просмотр не желателен
Качество: DVDRip
Формат: AVI
Видео кодек: XviD
Аудио кодек: AC3
Видео: XviD, 704x384 (16:9), 1719 kbps, 23,976 fps, 0,265 bpp
Аудио: AC3 / 5.1 / 48 kHz / 448 kbps / 16 bit© Оформление by ФёдорOFF
General
Complete name : D:раздачиFanaty.2008.XviD.DVDRip.avi
Format : AVI
Format/Info : Audio Video Interleave
File size : 1.36 GiB
Duration : 1h 29mn
Overall bit rate : 2 177 Kbps
Writing application : VirtualDubMod 1.5.10.2 (build 2542/release)
Writing library : VirtualDubMod build 2542/release

Video
ID : 0
Format : MPEG-4 Visual
Format profile : Advanced Simple@L5
Format settings, BVOP : 2
Format settings, QPel : No
Format settings, GMC : No warppoints
Format settings, Matrix : Default (MPEG)
Muxing mode : Packed bitstream
Codec ID : XVID
Codec ID/Hint : XviD
Duration : 1h 29mn
Bit rate : 1 720 Kbps
Width : 704 pixels
Height : 384 pixels
Display aspect ratio : 16:9
Frame rate : 23.976 fps
Color space : YUV
Chroma subsampling : 4:2:0
Bit depth : 8 bits
Scan type : Progressive
Compression mode : Lossy
Bits/(Pixel*Frame) : 0.265
Stream size : 1.08 GiB (79%)
Writing library : XviD 1.2.0.dev47 (UTC 2006-11-01)

Audio
ID : 1
Format : AC-3
Format/Info : Audio Coding 3
Mode extension : CM (complete main)
Codec ID : 2000
Duration : 1h 29mn
Bit rate mode : Constant
Bit rate : 448 Kbps
Channel(s) : 6 channels
Channel positions : Front: L C R, Side: L R, LFE
Sampling rate : 48.0 KHz
Bit depth : 16 bits
Compression mode : Lossy
Delay relative to video : 1s 0ms
Stream size : 287 MiB (21%)
Alignment : Split accross interleaves
Interleave, duration : 42 ms (1.00 video frame)
Interleave, preload duration : 500 ms
pb.wtf



Скачать Фанаты через торрент http://i2.imageban.ru/out/2013/09/29/a5fc705f9d77952a76586a492390b44a.jpg Скачать фильм Фанаты через торрент бесплантно в хорошем качестве Описание: В 1998 году пятеро фанатов «Звездных войн» отправляются на Ранчо «Скайуокер», чтобы стащить раннюю копию «Эпизода I - Скрытая ... 8.4 10 9
Info! Золотая раздача, скачанное не засчитывается.
Торрент: Зарегистрирован [2013-09-29 05:57] · скачан: 68 раз
Статус: √ проверено
Размер: 1.36 GB
Как cкачать? Как скачать Фанаты через торрент | qTorrent

% Раздел Тема Автор DL S | L
Фильмы 2009 [ 1.45 GB ] Фанаты / Fanboys [2009 BDRip двухголосый] Alex_E Скачать
1 | 0


>> Регистрируемся здесь <<






Отзывы и комментарии о схеме читаем и пишем здесь: ---> Отзывы и комментарии о схеме

Новые благодарочки в телеграм довольных пользователей:
скриншот   скриншот   скриншот   скриншот   скриншот
    Дорогой пользователь! Огромная просьба, поблагодарите релизера, оцените раздачу и оставьте свои комментарий, если Вы скачали Фанаты через торрент бесплатно! Внесите свою лепту в развитие PiratBit!
    Комментировать посты могут только пользователи прошедшие не сложную регистрацию
    Показать сообщения:    

    Фанаты через торрент
    Скачать бесплатно Фанаты
    Фанаты скачать торрент
    Фанаты смотреть онлайн
    Cкачать фильм Фанаты бесплатно
    Фанаты скачать торрент в хорошем качестве
    Фанаты смотреть онлайн бесплатно в хорошем качестве


    Вы не можете начинать темы
    Вы не можете отвечать на сообщения
    Вы не можете редактировать свои сообщения
    Вы не можете удалять свои сообщения
    Вы не можете голосовать в опросах
    Вы не можете прикреплять файлы к сообщениям
    Вы можете скачивать файлы