2 сезон

iTunes

MVO

1

2 сезон

iTunes

iTunes

1 сезон

RePack

30

Новинка

ВАЖНО

ИГРА 18+

pack

RePack

MK11
pack

Легкие деньги

RePack

jed

RePack

fifa19

RePack

RDR2

RePack

NEED FOR SPEED™ PAYBACK

4 сезон

9 сезон

Бесстыжие 9 сезон

Все сериалы

все сериалы на PB.wtf

RePack

FAR CRY 5

Anonymous, доброй ночи, мы не успеваем собрать деньги на оплату серверов за декабрь и январь, помогите нам пожалуйста в это трудное время. В качестве благодарности мы отключим Вам всю рекламу на сайте (укажите свой ник в строку Ваше имя)!

×
  
Magnet ссылка

Судная ночь / The Purge (Джеймс ДеМонако / James DeMonaco) [2013 г., Триллер, Ужасы, Боевик, BDRip-AVC, Дубляж - BD CEE] pb.wtf

Судная ночь через торрент pb.wtf

Размер: 1.46 GB | Добавлен: 7 лет 3 мес. назад | Торрент скачан:536 раз
Скачать  

29-09-2013 07:52 Судная ночь Скачать торрент  

Судная ночь / The Purge
Год выпуска: 2013
Страна: США, Франция / Universal Pictures, Why Not Productions, Blumhouse Productions, Platinum Dunes, Universal International Pictures (UI or U-I),
Жанр: Триллер, Ужасы, Боевик,
Продолжительность: 01:25:18
Перевод: Дубляж - BD CEE
Субтитры: Русские (полные + форс.), английские (полные + SDH + SDH / COLORED), украинские

Режиссер: Джеймс ДеМонако / James DeMonaco



В ролях: Итан Хоук, Лина Хиди, Аделаида Кэйн, Макс Буркхолдер, Эдвин Ходж, Тони Оллер, Риз Уэйкфилд, Джон Уэселкауч,

Описание: Мир будущего — мир без преступности… безработицы… войн. И все это благодаря одной ночи в году, когда можно отправить на тот свет любого — злобного босса, шумных соседей, надоевших родственников. В Судную ночь дозволено все — главное дожить до рассвета.

Качество: BDRip-AVC
Формат: MKV
Видео кодек: H.264
Аудио кодек: AC3
Видео: 1056x440 (2,40:1), 23,976 fps, 1678 Кbps, 0.151 bit/pixel
Аудио#1: 48 kHz, AC3 Dolby Digital, 3/2 (L,C,R,l,r) + LFE ch, 384.00 kbps | RUS
Аудио#2: 48 kHz, AC3 Dolby Digital, 3/2 (L,C,R,l,r) + LFE ch, 384.00 kbps | ENG

Релиз группы:
Автор рипа: potroks





Общее
Уникальный идентификатор : 191033445636229801939036983219398459775 (0x8FB7B40DA2241446AD60226BFA51417F)
Полное имя : Sudnaja.Noch'.2013.DUAL.BDRip.x264.-HELLYWOOD.mkv
Формат : Matroska
Версия формата : Version 4 / Version 2
Размер файла : 1,46 Гбайт
Продолжительность : 1 ч. 25 м.
Общий поток : 2448 Кбит/сек
Название фильма : HELLYWOOD - rip by potroks
Дата кодирования : UTC 2013-10-09 05:45:48
Программа кодирования : mkvmerge v5.9.0 ('On The Loose') built on Dec 15 2012 16:39:58
Библиотека кодирования : libebml v1.3.0 + libmatroska v1.4.0

Видео
Идентификатор : 1
Формат : AVC
Формат/Информация : Advanced Video Codec
Профиль формата : High@L4.1
Параметр CABAC формата : Да
Параметр ReFrames формата : 10 кадров
Идентификатор кодека : V_MPEG4/ISO/AVC
Продолжительность : 1 ч. 25 м.
Битрейт : 1678 Кбит/сек
Ширина : 1056 пикселей
Высота : 440 пикселей
Соотношение сторон : 2,40:1
Режим частоты кадров : Постоянный
Частота кадров : 23,976 кадра/сек
Цветовое пространство : YUV
Субдискретизация насыщенности : 4:2:0
Битовая глубина : 8 бит
Тип развёртки : Прогрессивная
Бит/(Пиксели*Кадры) : 0.151
Размер потока : 996 Мбайт (67%)
Заголовок : The Purge
Библиотека кодирования : x264 core 130 r2273 b3065e6
Настройки программы : cabac=1 / ref=10 / deblock=1:-3:-3 / analyse=0x3:0x133 / me=umh / subme=11 / psy=1 / psy_rd=1.02:0.00 / mixed_ref=1 / me_range=48 / chroma_me=1 / trellis=2 / 8x8dct=1 / cqm=0 / deadzone=21,11 / fast_pskip=0 / chroma_qp_offset=-2 / threads=8 / lookahead_threads=2 / sliced_threads=0 / nr=0 / decimate=0 / interlaced=0 / bluray_compat=0 / constrained_intra=0 / bframes=11 / b_pyramid=2 / b_adapt=2 / b_bias=0 / direct=3 / weightb=1 / open_gop=0 / weightp=2 / keyint=250 / keyint_min=23 / scenecut=40 / intra_refresh=0 / rc_lookahead=60 / rc=2pass / mbtree=0 / bitrate=1678 / ratetol=1.0 / qcomp=0.70 / qpmin=0 / qpmax=69 / qpstep=4 / cplxblur=20.0 / qblur=0.5 / vbv_maxrate=20000 / vbv_bufsize=20000 / nal_hrd=none / ip_ratio=1.35 / pb_ratio=1.35 / aq=1:0.90
Язык : English
Default : Да
Forced : Нет

Аудио #1
Идентификатор : 2
Формат : AC-3
Формат/Информация : Audio Coding 3
Расширение режима : CM (complete main)
Параметр Endianness формата : Big
Идентификатор кодека : A_AC3
Продолжительность : 1 ч. 25 м.
Вид битрейта : Постоянный
Битрейт : 384 Кбит/сек
Каналы : 6 каналов
Расположение каналов : Front: L C R, Side: L R, LFE
Частота : 48,0 КГц
Битовая глубина : 16 бит
Метод сжатия : С потерями
Размер потока : 234 Мбайт (16%)
Заголовок : Dub | DD 5.1 @ 384 kbps - BD CEE
Язык : Russian
Default : Да
Forced : Да

Аудио #2
Идентификатор : 3
Формат : AC-3
Формат/Информация : Audio Coding 3
Расширение режима : CM (complete main)
Параметр Endianness формата : Big
Идентификатор кодека : A_AC3
Продолжительность : 1 ч. 25 м.
Вид битрейта : Постоянный
Битрейт : 384 Кбит/сек
Каналы : 6 каналов
Расположение каналов : Front: L C R, Side: L R, LFE
Частота : 48,0 КГц
Битовая глубина : 16 бит
Метод сжатия : С потерями
Размер потока : 234 Мбайт (16%)
Заголовок : Original | DD 5.1 @ 384 kbps
Язык : English
Default : Нет
Forced : Нет

Текст #1
Идентификатор : 4
Формат : UTF-8
Идентификатор кодека : S_TEXT/UTF8
Идентификатор кодека/Информация : UTF-8 Plain Text
Заголовок : Forced
Язык : Russian
Default : Да
Forced : Да

Текст #2
Идентификатор : 5
Формат : UTF-8
Идентификатор кодека : S_TEXT/UTF8
Идентификатор кодека/Информация : UTF-8 Plain Text
Язык : Russian
Default : Нет
Forced : Нет

Текст #3
Идентификатор : 6
Формат : UTF-8
Идентификатор кодека : S_TEXT/UTF8
Идентификатор кодека/Информация : UTF-8 Plain Text
Язык : Ukrainian
Default : Нет
Forced : Нет

Текст #4
Идентификатор : 7
Формат : UTF-8
Идентификатор кодека : S_TEXT/UTF8
Идентификатор кодека/Информация : UTF-8 Plain Text
Язык : English
Default : Нет
Forced : Нет

Текст #5
Идентификатор : 8
Формат : UTF-8
Идентификатор кодека : S_TEXT/UTF8
Идентификатор кодека/Информация : UTF-8 Plain Text
Заголовок : SDH
Язык : English
Default : Нет
Forced : Нет

Текст #6
Идентификатор : 9
Формат : UTF-8
Идентификатор кодека : S_TEXT/UTF8
Идентификатор кодека/Информация : UTF-8 Plain Text
Заголовок : SDH-COLORED
Язык : English
Default : Нет
Forced : Нет

Меню
00:00:00.000 : en:00:00:00.000
00:04:30.562 : en:00:04:30.562
00:07:24.402 : en:00:07:24.402
00:13:48.619 : en:00:13:48.619
00:18:24.103 : en:00:18:24.103
00:23:11.473 : en:00:23:11.473
00:28:13.859 : en:00:28:13.859
00:31:33.266 : en:00:31:33.266
00:35:42.182 : en:00:35:42.182
00:39:28.741 : en:00:39:28.741
00:44:37.508 : en:00:44:37.508
00:47:53.120 : en:00:47:53.120
00:50:33.447 : en:00:50:33.447
00:56:02.234 : en:00:56:02.234
01:00:20.283 : en:01:00:20.283
01:03:35.729 : en:01:03:35.729
01:07:09.776 : en:01:07:09.776
01:11:09.891 : en:01:11:09.891
01:16:01.807 : en:01:16:01.807
01:19:27.096 : en:01:19:27.096

pb.wtf



Скачать Судная ночь через торрент http://uploadpic.ru/img/2013-09/29/f2dx08gzno32dns5ek50u4yht.png Скачать фильм Судная ночь через торрент бесплантно в хорошем качестве Описание: Мир будущего — мир без преступности… безработицы… войн. И все это благодаря одной ночи в году, когда можно отправить на тот свет ... 9.7 10 50
Info! Золотая раздача, скачанное не засчитывается.
Торрент: Зарегистрирован [2013-10-09 05:53] · скачан: 536 раз
Статус: √ проверено
Размер: 1.46 GB
Как cкачать? Как скачать Судная ночь через торрент | UTorrent

% Раздел Тема Автор DL S | L
Сборники и Сиквелы (48-60 fps) [ 15.12 GB ] Судная ночь: Квадрология / The Purge: Quadrology [2013 - 2018 BDRip - HEVC 1080p 10 bit 60 FPS DUB] dd2d3 Скачать
1 | 2
Зарубежные сериалы [ 24.37 GB ] Судная ночь / The Purge / Сезон: 1 / Серии: 1-10 из 10 [2018 WEB-DL 1080p] MVO [Пифагор] bober100 Скачать
1 | 0
Зарубежные сериалы [ 27.69 GB ] Судная ночь / The Purge / Сезон 2 / Серии 1-10 из 10 [2019 WEB-DL 1080p] MVO [TVShows] bober100 Скачать
1 | 0
Зарубежные сериалы [ 7.01 GB ] Судная ночь / The Purge / Сезон: 2 / Серии: 1-10 из 10 [2019 WEB-DLRip] MVO [TVShows] bober100 Скачать
1 | 0
Зарубежные сериалы [ 28.03 GB ] Судная ночь / The Purge / Сезон: 2 / Серии: 1-10 из 10 [2019 WEB-DL 1080p] MVO [Пифагор] bober100 Скачать
1 | 0
Зарубежные сериалы [ 13.85 GB ] Судная ночь / The Purge / Сезон: 2 / Серии: 1-10 из 10 [2019 WEB-DL 720p] MVO [TVShows] bober100 Скачать
2 | 0
Зарубежные сериалы [ 1.17 GB ] Судная ночь / The Purge / Сезон 2 / Серии 1- из 10 [2019 WEB-DL 720p] MVO [AlexFilm] bober100 Скачать
1 | 0


Последний раз редактировалось: potroks (2013-10-09 07:03), всего редактировалось 2 раз(а)

28-11-2019 20:33  

Отключить всю рекламу на сайте


29-09-2013 08:09 Судная ночь Скачать торрент  

29-09-2013 14:15 Судная ночь Скачать торрент  

Нормальный фильмpb.wtf



29-09-2013 14:45 Судная ночь Скачать торрент  

судя по трейлеру стоящий фильм. качаюpb.wtf



01-10-2013 17:10 Судная ночь Скачать торрент  

Непродуманный фильм, хотя затея неплохая, одноразовый...pb.wtf



06-10-2013 12:41 Судная ночь Скачать торрент  

Норм. Идея фильма интересная.pb.wtf



09-10-2013 05:54 Судная ночь Скачать торрент  

перезалил на лицензиюpb.wtf



09-10-2013 06:32 Судная ночь Скачать торрент  

Сама идея довольна не плохая, но чет реализация мне не понравилась. Фильм одноразовый.pb.wtf



    Дорогой пользователь! Огромная просьба, поблагодарите релизера, оцените раздачу и оставьте свои комментарий, если Вы скачали Судная ночь через торрент бесплатно! Внесите свою лепту в развитие PiratBit!
    Комментировать посты могут только пользователи прошедшие не сложную регистрацию
    Показать сообщения:    

    Судная ночь через торрент
    Скачать бесплатно Судная ночь
    Судная ночь скачать торрент
    Судная ночь смотреть онлайн
    Cкачать фильм Судная ночь бесплатно
    Судная ночь скачать торрент в хорошем качестве
    Судная ночь смотреть онлайн бесплатно в хорошем качестве


    Вы не можете начинать темы
    Вы не можете отвечать на сообщения
    Вы не можете редактировать свои сообщения
    Вы не можете удалять свои сообщения
    Вы не можете голосовать в опросах
    Вы не можете прикреплять файлы к сообщениям
    Вы можете скачивать файлы