2 сезон

iTunes

MVO

1

2 сезон

iTunes

iTunes

1 сезон

RePack

30

Новинка

ВАЖНО

ИГРА 18+

pack

RePack

MK11
pack

Легкие деньги

RePack

jed

RePack

fifa19

RePack

RDR2

RePack

NEED FOR SPEED™ PAYBACK

4 сезон

9 сезон

Бесстыжие 9 сезон

Все сериалы

все сериалы на PB.wtf

RePack

FAR CRY 5

Anonymous, добрый день, мы не успеваем собрать деньги на оплату серверов за декабрь и январь, помогите нам пожалуйста в это трудное время. В качестве благодарности мы отключим Вам всю рекламу на сайте (укажите свой ник в строку Ваше имя)!

×
  
Magnet ссылка

Мертвец в Тумбстоуне / Dead in Tombstone (Роэль Рейн) [2013 г., Фэнтези, вестерн, HDRip] Dub Лицензия pb.wtf

Мертвец в Тумбстоуне через торрент pb.wtf

Размер: 1.46 GB | Добавлен: 7 лет 3 мес. назад | Торрент скачан:2903 раза
Скачать  

29-09-2013 11:39 Мертвец в Тумбстоуне Скачать торрент  

Мертвец в Тумбстоуне / Dead in Tombstone

Год выпуска: 2013
Страна: США, CC Capital Arts Entertainment SRL, Universal 1440 Entertainment
Жанр: Фэнтези, вестерн
Продолжительность: 01:39:53
Перевод: Профессиональный (полное дублирование) Лицензия
Субтитры: нет

Режиссер: Роэль Рейн

В ролях: Дэнни Трехо, Энтони Майкл Холл, Дина Мейер, Микки Рурк, Ричард Диллэйн, Эдвард Экрут, Каталина Грама, Ронан Саммерс, Дан Бадарау, Раду Андрей Мику

Описание: Сюжет вращается вокруг мексиканского бандита по имени Герреро Эрнандес, которого предательски убил родной брат, свежевызволенный из тюрьмы. Заключивший сделку с Дьяволом с Эль Диабло, Эрнандес возвращается в мир живых, чтобы во всём разобраться и отомстить.



Качество: HDRip
Формат: AVI
Видео кодек: XviD
Аудио кодек: AC3
Видео: 720x400 (1.80:1), 23.976 fps, XviD build 50 ~1630 kbps avg, 0.24 bit/pixel
Аудио: 48 kHz, AC3 Dolby Digital, 3/2 (L,C,R,l,r) + LFE ch, ~448 kbps
Общее
Полное имя : F:VideoMertvec.v.Tumbstoune.2013.D.HDRip.1.46Gb.avi
Формат : AVI
Формат/Информация : Audio Video Interleave
Размер файла : 1,46 Гбайт
Продолжительность : 1 ч. 39 м.
Общий поток : 2088 Кбит/сек
Программа кодирования : VirtualDubMod 1.5.10.3 | www.virtualdub-fr.org || (build 2550/release)
Библиотека кодирования : VirtualDubMod build 2550/release

Видео
Идентификатор : 0
Формат : MPEG-4 Visual
Профиль формата : Advanced Simple@L5
Параметр BVOP формата : 1
Параметр QPel формата : Нет
Параметр GMC формата : Без точки перехода
Параметр матрицы формата : Выборочная
Идентификатор кодека : XVID
Идентификатор кодека/Подсказка : XviD
Продолжительность : 1 ч. 39 м.
Битрейт : 1630 Кбит/сек
Ширина : 720 пикселей
Высота : 400 пикселей
Соотношение сторон : 16:9
Частота кадров : 23,976 кадра/сек
Цветовое пространство : YUV
Субдискретизация насыщенности : 4:2:0
Битовая глубина : 8 бит
Тип развёртки : Прогрессивная
Метод сжатия : С потерями
Бит/(Пиксели*Кадры) : 0.236
Размер потока : 1,14 Гбайт (78%)
Библиотека кодирования : XviD 1.2.1 (UTC 2008-12-04)

Аудио
Идентификатор : 1
Формат : AC-3
Формат/Информация : Audio Coding 3
Расширение режима : CM (complete main)
Параметр Endianness формата : Big
Идентификатор кодека : 2000
Продолжительность : 1 ч. 39 м.
Вид битрейта : Постоянный
Битрейт : 448 Кбит/сек
Каналы : 6 каналов
Расположение каналов : Front: L C R, Side: L R, LFE
Частота : 48,0 КГц
Битовая глубина : 16 бит
Метод сжатия : С потерями
Размер потока : 320 Мбайт (21%)
Выравнивание : Разделение по промежуткам
Продолжительность промежутка : 42 мс. (1,00 видеокадр)
Время предзагрузки промежутка : 500 мс.
]pb.wtf



Скачать Мертвец в Тумбстоуне через торрент http://pic.kartinco.top/images/4/4hmkc.jpg Скачать фильм Мертвец в Тумбстоуне через торрент бесплантно в хорошем качестве Описание: Сюжет вращается вокруг мексиканского бандита по имени Герреро Эрнандес, которого предательски убил родной брат, свежевызволенный ... 9.5 10 90
Info! Золотая раздача, скачанное не засчитывается.
Торрент: Зарегистрирован [2013-09-29 11:39] · скачан: 2 903 раз
Статус: √ проверено
Размер: 1.46 GB
Как cкачать? Как скачать Мертвец в Тумбстоуне через торрент | UTorrent

28-11-2019 20:33  

Отключить всю рекламу на сайте

29-09-2013 11:53 Мертвец в Тумбстоуне Скачать торрент  

Хорошая оценка на кинопоиске)) нужно скачатьpb.wtf



29-09-2013 11:59 Мертвец в Тумбстоуне Скачать торрент  

Скачаем!) Заценим!)pb.wtf



29-09-2013 16:14 Мертвец в Тумбстоуне Скачать торрент  

Не плохой фильм...pb.wtf



30-09-2013 22:06 Мертвец в Тумбстоуне Скачать торрент  

фильм неплохой раз посмотреть можноpb.wtf



03-10-2013 20:24 Мертвец в Тумбстоуне Скачать торрент  

фильм г.... pb.wtf



    Дорогой пользователь! Огромная просьба, поблагодарите релизера, оцените раздачу и оставьте свои комментарий, если Вы скачали Мертвец в Тумбстоуне через торрент бесплатно! Внесите свою лепту в развитие PiratBit!
    Комментировать посты могут только пользователи прошедшие не сложную регистрацию
    Показать сообщения:    

    Мертвец в Тумбстоуне через торрент
    Скачать бесплатно Мертвец в Тумбстоуне
    Мертвец в Тумбстоуне скачать торрент
    Мертвец в Тумбстоуне смотреть онлайн
    Cкачать фильм Мертвец в Тумбстоуне бесплатно
    Мертвец в Тумбстоуне скачать торрент в хорошем качестве
    Мертвец в Тумбстоуне смотреть онлайн бесплатно в хорошем качестве


    Вы не можете начинать темы
    Вы не можете отвечать на сообщения
    Вы не можете редактировать свои сообщения
    Вы не можете удалять свои сообщения
    Вы не можете голосовать в опросах
    Вы не можете прикреплять файлы к сообщениям
    Вы можете скачивать файлы