Ссылка на приватное зеркало нашего сайта всего за 1$. Внимание количество ограничено!!!

2 сезон

iTunes

1 сезон

1

iTunes

iTunes

iTunes

1 сезон

RePack

30

ИГРА 18+

pack

ВАЖНО

!!Акция!!

Alien_RageХит недели

RePack

MK11
pack

Забери бонус

RePack

jed

!!Акция!!

Alien_Rage

RePack

fifa19

RePack

Assassins Creed: Odyssey

RePack

NEED FOR SPEED™ PAYBACK

4 сезон

9 сезон

Бесстыжие 9 сезон

Все сериалы

все сериалы на PB.wtf

RePack

FAR CRY 5
  

Возмездие / Месть / Revenge / Сезон: 2 / Серии: 1-22 из 22 (2012) WEB-DLRip / Fox Life pb.wtf

Возмездие через торрент pb.wtf

Размер: 10.74 GB | Добавлен: 6 лет 2 мес. назад | Торрент скачан:335 раз
Скачать  

30-09-2013 15:50 Возмездие Скачать торрент  

Возмездие / Месть / Revenge
Год выпуска: 2012
Страна: США
Жанр: драма,
Продолжительность: 43 мин.
Перевод: Профессиональный (многоголосый, закадровый) (Fox Life)
Режиссер: Сэнфорд Букставер Кеннет Финк Мэтт Эрл Бисли
В ролях: Эмили ВанКэмп, Мадлен Стоу, Гэбриел Манн, Джошуа Боуман, Ник Уэкслер, Генри Черни, Коннор Паоло, Криста Б. Аллен, Эшли Мадекве, Джеймс Таппер и др.
IMDB 8.00 (58 069)

Описание: Богатство, красота и статус характеризуют людей в этом городе, но одна женщина готова уничтожить всех ради мести. Эмили Торн – новенькая в Хэмптоне. Она познакомилась с некоторыми влиятельными соседями, завела несколько друзей и, казалось бы, легко вписывается. Но есть что-то странное в том, что молодая девушка живет в богатом городе сама по себе. На самом деле, Эмили не совсем новичок в этом районе. Она уже жила здесь, пока не случилось что-то ужасное, разрушившее её семью и репутацию. Сейчас Эмили вернулась, чтобы восстановить справедливость самым лучшим для неё способом – местью.
Качество: WEB-DLRip
Формат: AVI
Видео кодек: XviD
Аудио кодек: MP3
Видео: 720x400 (16:9), 23.976 fps, ~1350 kbps, ~0.195 bit/pixel
Аудио Rus: 48 kHz, 2 ch, ~128 kbps |Fox Life|
Аудио Eng: 48 kHz, 2 ch, ~128 kbps |Original|



General
Complete name : F:videoRevengeRevenge.s02.WEB-DLRip.Rus.Eng.Fox.Liferevenge.s02e01.web-dlrip.rus.eng.novafilm.tv.avi
Format : AVI
Format/Info : Audio Video Interleave
File size : 500 MiB
Duration : 43mn 17s
Overall bit rate : 1 615 Kbps
Writing application : VirtualDubMod 1.5.10.2 (build 2540/release)
Writing library : VirtualDubMod build 2540/release

Video
ID : 0
Format : MPEG-4 Visual
Format profile : Advanced Simple@L5
Format settings, BVOP : 1
Format settings, QPel : No
Format settings, GMC : No warppoints
Format settings, Matrix : Default (MPEG)
Codec ID : XVID
Codec ID/Hint : XviD
Duration : 43mn 17s
Bit rate : 1 345 Kbps
Width : 720 pixels
Height : 400 pixels
Display aspect ratio : 16:9
Frame rate : 23.976 fps
Color space : YUV
Chroma subsampling : 4:2:0
Bit depth : 8 bits
Scan type : Progressive
Compression mode : Lossy
Bits/(Pixel*Frame) : 0.195
Stream size : 416 MiB (83%)
Writing library : XviD 64

Audio #1
ID : 1
Format : MPEG Audio
Format version : Version 1
Format profile : Layer 3
Mode : Joint stereo
Mode extension : MS Stereo
Codec ID : 55
Codec ID/Hint : MP3
Duration : 43mn 17s
Bit rate mode : Constant
Bit rate : 128 Kbps
Channel(s) : 2 channels
Sampling rate : 48.0 KHz
Compression mode : Lossy
Stream size : 39.6 MiB (8%)
Alignment : Aligned on interleaves
Interleave, duration : 42 ms (1.00 video frame)
Interleave, preload duration : 504 ms

Audio #2
ID : 2
Format : MPEG Audio
Format version : Version 1
Format profile : Layer 3
Mode : Joint stereo
Mode extension : MS Stereo
Codec ID : 55
Codec ID/Hint : MP3
Duration : 43mn 17s
Bit rate mode : Constant
Bit rate : 128 Kbps
Channel(s) : 2 channels
Sampling rate : 48.0 KHz
Compression mode : Lossy
Stream size : 39.6 MiB (8%)
Alignment : Aligned on interleaves
Interleave, duration : 42 ms (1.00 video frame)
Interleave, preload duration : 504 ms
pb.wtf



Скачать Возмездие через торрент http://pic.kartinco.top/images/6/5jv1o.jpg Скачать фильм Возмездие через торрент бесплантно в хорошем качестве Описание: Богатство, красота и статус характеризуют людей в этом городе, но одна женщина готова уничтожить всех ради мести. Эмили Торн – ... 8.3 10 8
Info! Золотая раздача, скачанное не засчитывается.
Торрент: Зарегистрирован [2014-08-06 12:56] · скачан: 335 раз
Статус: √ проверено
Размер: 10.74 GB
Как cкачать? Как скачать Возмездие через торрент | qTorrent

28-11-2019 20:33  

Отключить всю рекламу на сайте

    Дорогой пользователь! Огромная просьба, поблагодарите релизера, оцените раздачу и оставьте свои комментарий, если Вы скачали Возмездие через торрент бесплатно! Внесите свою лепту в развитие PiratBit!
    Комментировать посты могут только пользователи прошедшие не сложную регистрацию
    Показать сообщения:    

    Возмездие через торрент
    Скачать бесплатно Возмездие
    Возмездие скачать торрент
    Возмездие смотреть онлайн
    Cкачать фильм Возмездие бесплатно
    Возмездие скачать торрент в хорошем качестве
    Возмездие смотреть онлайн бесплатно в хорошем качестве


    Вы не можете начинать темы
    Вы не можете отвечать на сообщения
    Вы не можете редактировать свои сообщения
    Вы не можете удалять свои сообщения
    Вы не можете голосовать в опросах
    Вы не можете прикреплять файлы к сообщениям
    Вы можете скачивать файлы