Достать ножи: Стеклянная луковица

MVO

Добыча

Дубляж

Уэнсдэй

1 сезон

Тор

Дубляж

13 клиническая

1 сезон

Жестокая ночь

MVO

Одни из нас

1 сезон

Deluxe

pack

Рекомендуем

30

Пиратка

ВАЖНО

ВАЖНО

Ghostwire

Пиратка

jed

RePack

nioh2

RePack

RDR2

RePack

NEED FOR SPEED™ PAYBACK

RePack

скачать торрент

Кинопоиск HD

Острые козырьки 6 сезон

6 сезон

FAR CRY 6

RePack

скачать торрент

Лицензия

скачать торрент

MVO

1

1 сезон

скачать торрент

1 сезон

скачать торрент

Лицензия

  

Мертвец в Тумбстоуне / Dead in Tombstone (Роэль Рейн / Roel Reiné) [2013 г., Фэнтези, вестерн, BDRip-AVC, Дубляж, Лицензия]

Мертвец в Тумбстоуне через торрент pb.wtf

Размер: 2.19 GB | Добавлен: 9 лет 4 мес. назад | Торрент скачан:560 раз
Смотреть онлайн | Скачать | Поддержите нас   

30-09-2013 16:01 Мертвец в Тумбстоуне Скачать торрент  

Мертвец в Тумбстоуне / Dead in Tombstone
Год выпуска: 2013
Страна: США / CC Capital Arts Entertainment SRL, Universal 1440 Entertainment
Жанр: Фэнтези, вестерн,
Продолжительность: 01:39:53
Перевод: Дубляж, Лицензия BD CEE
Субтитры: Русские (полные + форс.), английские (SDH / COLORED + полные)

Режиссер: Роэль Рейн / Roel Reiné



В ролях: Дэнни Трехо, Энтони Майкл Холл, Дина Мейер, Микки Рурк, Ричард Диллэйн, Эдвард Экрут, Каталина Грама, Ронан Саммерс, Дан Бадарау, Раду Андрей Мику,

Описание: Сюжет вращается вокруг мексиканского бандита по имени Герреро Эрнандес, которого предательски убил родной брат, свежевызволенный из тюрьмы. Заключивший сделку с Дьяволом с Эль Диабло, Эрнандес возвращается в мир живых, чтобы во всём разобраться и отомстить.

Качество: BDRip-AVC
Формат: MKV
Видео кодек: H.264
Аудио кодек: AC3
Видео: 1024x576 (16:9), 23,976 fps, 2236 Кbps, 0.158 bit/pixel
Аудио#1: 48 kHz, AC3 Dolby Digital, 3/2 (L,C,R,l,r) + LFE ch, 448.00 kbps | RUS
Аудио#2: 48 kHz, AC3 Dolby Digital, 3/2 (L,C,R,l,r) + LFE ch, 448.00 kbps | ENG

Релиз группы:
Автор рипа: potroks





Общее
Уникальный идентификатор : 183825553080979111348136000981173837047 (0x8A4B83834CA767B3BF92ABA482489CF7)
Полное имя : Mertvec.v.Tumbstoune.2013.DUAL.BDRip.x264.-HELLYWOOD.mkv
Формат : Matroska
Версия формата : Version 4 / Version 2
Размер файла : 2,19 Гбайт
Продолжительность : 1 ч. 39 м.
Общий поток : 3134 Кбит/сек
Название фильма : HELLYWOOD - rip by potroks
Дата кодирования : UTC 2013-09-30 15:32:22
Программа кодирования : mkvmerge v5.9.0 ('On The Loose') built on Dec 15 2012 16:39:58
Библиотека кодирования : libebml v1.3.0 + libmatroska v1.4.0

Видео
Идентификатор : 1
Формат : AVC
Формат/Информация : Advanced Video Codec
Профиль формата : [email protected]
Параметр CABAC формата : Да
Параметр ReFrames формата : 12 кадров
Идентификатор кодека : V_MPEG4/ISO/AVC
Продолжительность : 1 ч. 39 м.
Битрейт : 2236 Кбит/сек
Ширина : 1024 пикселя
Высота : 576 пикселей
Соотношение сторон : 16:9
Режим частоты кадров : Постоянный
Частота кадров : 23,976 кадра/сек
Цветовое пространство : YUV
Субдискретизация насыщенности : 4:2:0
Битовая глубина : 8 бит
Тип развёртки : Прогрессивная
Бит/(Пиксели*Кадры) : 0.158
Размер потока : 1,52 Гбайт (69%)
Заголовок : Dead in Tombstone
Библиотека кодирования : x264 core 130 r2273 b3065e6
Настройки программы : cabac=1 / ref=12 / deblock=1:-2:-2 / analyse=0x3:0x133 / me=umh / subme=11 / psy=1 / psy_rd=1.05:0.02 / mixed_ref=1 / me_range=48 / chroma_me=1 / trellis=2 / 8x8dct=1 / cqm=0 / deadzone=21,11 / fast_pskip=0 / chroma_qp_offset=-3 / threads=12 / lookahead_threads=3 / sliced_threads=0 / nr=0 / decimate=0 / interlaced=0 / bluray_compat=0 / constrained_intra=0 / bframes=13 / b_pyramid=2 / b_adapt=2 / b_bias=0 / direct=3 / weightb=1 / open_gop=0 / weightp=2 / keyint=250 / keyint_min=23 / scenecut=40 / intra_refresh=0 / rc_lookahead=60 / rc=2pass / mbtree=0 / bitrate=2236 / ratetol=1.0 / qcomp=0.70 / qpmin=0 / qpmax=69 / qpstep=4 / cplxblur=20.0 / qblur=0.5 / vbv_maxrate=20000 / vbv_bufsize=25000 / nal_hrd=none / ip_ratio=1.35 / pb_ratio=1.35 / aq=1:0.70
Язык : English
Default : Да
Forced : Нет

Аудио #1
Идентификатор : 2
Формат : AC-3
Формат/Информация : Audio Coding 3
Расширение режима : CM (complete main)
Параметр Endianness формата : Big
Идентификатор кодека : A_AC3
Продолжительность : 1 ч. 39 м.
Вид битрейта : Постоянный
Битрейт : 448 Кбит/сек
Каналы : 6 каналов
Расположение каналов : Front: L C R, Side: L R, LFE
Частота : 48,0 КГц
Битовая глубина : 16 бит
Метод сжатия : С потерями
Размер потока : 320 Мбайт (14%)
Заголовок : Дубляж | DD 5.1 @ 448 kbps - BD CEE
Язык : Russian
Default : Да
Forced : Да

Аудио #2
Идентификатор : 3
Формат : AC-3
Формат/Информация : Audio Coding 3
Расширение режима : CM (complete main)
Параметр Endianness формата : Big
Идентификатор кодека : A_AC3
Продолжительность : 1 ч. 39 м.
Вид битрейта : Постоянный
Битрейт : 448 Кбит/сек
Каналы : 6 каналов
Расположение каналов : Front: L C R, Side: L R, LFE
Частота : 48,0 КГц
Битовая глубина : 16 бит
Метод сжатия : С потерями
Размер потока : 320 Мбайт (14%)
Заголовок : Original | DD 5.1 @ 448 kbps
Язык : English
Default : Нет
Forced : Нет

Текст #1
Идентификатор : 4
Формат : UTF-8
Идентификатор кодека : S_TEXT/UTF8
Идентификатор кодека/Информация : UTF-8 Plain Text
Заголовок : Forced
Язык : Russian
Default : Да
Forced : Да

Текст #2
Идентификатор : 5
Формат : UTF-8
Идентификатор кодека : S_TEXT/UTF8
Идентификатор кодека/Информация : UTF-8 Plain Text
Язык : Russian
Default : Нет
Forced : Нет

Текст #3
Идентификатор : 6
Формат : UTF-8
Идентификатор кодека : S_TEXT/UTF8
Идентификатор кодека/Информация : UTF-8 Plain Text
Заголовок : SDH / COLORED
Язык : English
Default : Нет
Forced : Нет

Текст #4
Идентификатор : 7
Формат : UTF-8
Идентификатор кодека : S_TEXT/UTF8
Идентификатор кодека/Информация : UTF-8 Plain Text
Язык : English
Default : Нет
Forced : Нет

Меню
00:00:00.000 : en:00:00:00.000
00:04:50.582 : en:00:04:50.582
00:09:20.810 : en:00:09:20.810
00:13:03.992 : en:00:13:03.992
00:17:48.150 : en:00:17:48.150
00:22:20.089 : en:00:22:20.089
00:30:53.477 : en:00:30:53.477
00:38:30.058 : en:00:38:30.058
00:46:41.841 : en:00:46:41.841
00:49:39.518 : en:00:49:39.518
00:52:40.574 : en:00:52:40.574
00:56:18.750 : en:00:56:18.750
01:02:11.728 : en:01:02:11.728
01:06:14.053 : en:01:06:14.053
01:12:31.222 : en:01:12:31.222
01:17:38.863 : en:01:17:38.863
01:21:29.927 : en:01:21:29.927
01:25:32.419 : en:01:25:32.419
01:30:24.836 : en:01:30:24.836
01:36:14.644 : en:01:36:14.644




Скачать Мертвец в Тумбстоуне через торрент http://www.uploadpic.ru/img/2013-09/30/wga6ejcs0wawfl5n4dbvmtxry.png Скачать, смотреть онлайн Мертвец в Тумбстоуне бесплантно в хорошем качестве Описание: Сюжет вращается вокруг мексиканского бандита по имени Герреро Эрнандес, которого предательски убил родной брат, свежевызволенный ... 9.8 10 18
Info! Золотая раздача, скачанное не засчитывается.
Торрент: Зарегистрирован [2013-09-30 16:02] · скачан: 560 раз
Статус: √ проверено
Размер: 2.19 GB
Как cкачать? Как скачать Мертвец в Тумбстоуне через торрент | UTorrent

% Раздел Тема Автор DL S | L
Фильмы 2013 [DVDrip, WEB-DLRip, HDrip] [ 1.46 GB ] Мертвец в Тумбстоуне / Dead in Tombstone | Лицензия | BDRip-AVC, Дубляж, Лицензия potroks Скачать
1 | 0
Фильмы 2013 [DVDrip, WEB-DLRip, HDrip] [ 743 MB ] Мертвец в Тумбстоуне / Dead in Tombstone | | BDRip-AVC sokol_ok Скачать
2 | 0
Фильмы [HD 720p, 1080p] (Хороший звук DUB, MVO) [ 11.88 GB ] Мертвец в Тумбстоуне / Dead in Tombstone | Лицензия | 1080p, Дубляж лисяра Скачать
1 | 0
Фильмы (Blu-ray, BD-Remux, HDDVD) [ 24.66 GB ] Мертвец в Тумбстоуне / Dead in Tombstone | Лицензия | BD Remux, Дубляж[Лицензия Ворон Скачать
1 | 0



Последний раз редактировалось: potroks (2013-09-30 16:22), всего редактировалось 1 раз

28-11-2019 20:33  


Отключить вcю реклaмy на сайте, в т.ч. и в плеере онлайн просмотра!

30-09-2013 16:11 Мертвец в Тумбстоуне Скачать торрент  

10-10-2013 04:23 Мертвец в Тумбстоуне Скачать торрент  

Это наверное что-то шибко дешовое, и нудное. Утверждать не стану. Просто складывается такое впечатление глядя на скрины.



    Дорогой пользователь! Огромная просьба, поблагодарите релизера, оцените раздачу и оставьте свои комментарий, если Вы скачали Мертвец в Тумбстоуне через торрент бесплатно!!
    Комментировать посты могут только пользователи прошедшие не сложную регистрацию
    Показать сообщения:    


    Мертвец в Тумбстоуне через торрент
    Скачать бесплатно Мертвец в Тумбстоуне
    Мертвец в Тумбстоуне скачать торрент
    Мертвец в Тумбстоуне смотреть онлайн
    Cкачать фильм Мертвец в Тумбстоуне бесплатно
    Мертвец в Тумбстоуне скачать торрент в хорошем качестве
    Мертвец в Тумбстоуне смотреть онлайн бесплатно в хорошем качестве
    Вы не можете начинать темы
    Вы не можете отвечать на сообщения
    Вы не можете редактировать свои сообщения
    Вы не можете удалять свои сообщения
    Вы не можете голосовать в опросах
    Вы не можете прикреплять файлы к сообщениям
    Вы можете скачивать файлы
    Мертвец в Тумбстоуне / Dead in Tombstone [2013 г., Фэнтези, вестерн, BDRip-AVC, Дубляж, Лицензия] смотреть онлайн, скачать торрент picoco.icu