Ссылка на приватное зеркало нашего сайта всего за 1$. Внимание количество ограничено!!!

2 сезон

iTunes

1 сезон

1

iTunes

iTunes

iTunes

1 сезон

RePack

30

ИГРА 18+

pack

ВАЖНО

!!Акция!!

Alien_RageХит недели

RePack

MK11
pack

Забери бонус

RePack

jed

!!Акция!!

Alien_Rage

RePack

fifa19

RePack

Assassins Creed: Odyssey

RePack

NEED FOR SPEED™ PAYBACK

4 сезон

9 сезон

Бесстыжие 9 сезон

Все сериалы

все сериалы на PB.wtf

RePack

FAR CRY 5
  

Дрожь земли 2: Повторный удар / Tremors II: Aftershocks (С.С. Уилсон) [1996 г., ужасы, фантастика, боевик, триллер, BDRip 1080p, Профессиональный (многоголосый, закадровый) pb.wtf

Дрожь земли 2: Повторный удар через торрент pb.wtf

Размер: 7.95 GB | Добавлен: 7 лет назад | Торрент скачан:49 раз
Скачать  

30-09-2013 19:44 Дрожь земли 2: Повторный удар Скачать торрент  

Дрожь земли 2: Повторный удар / Tremors II: Aftershocks
Год выпуска: 1996
Страна: США
Жанр: ужасы, фантастика, боевик, триллер,
Продолжительность: 01:39:28
Перевод: Профессиональный (многоголосый, закадровый)+Авторский (Живов Юрий)+
Авторский (Володарский Леонид)+(Украинский)+Оригинал
Субтитры: Английские русские

Режиссер: С.С. Уилсон

В ролях: Фред Уорд, Кристофер Гартин, Хелен Шейвер, Майкл Гросс, Марсело Тьюберт, Марко Эрнандез, Хосе Рамон Росарио, Томас Розалес мл., С.С. Уилсон,

Описание: Гигантские черви «грабоиды» возвращаются, чтобы превратить Землю в большой шведский стол. Пока что древние хищники из прекембрийского периода довольствуются случайными странниками и рабочими, оказавшимися в мексиканской пустыне.

Но аппетиты тварей растут с каждым днем. Бизнесмен Карлос Ортега решает положить конец беспределу гигантских червей и отправляется в штат Невада на поиски Эрла Бассета, того самого смельчака, которому удалось убить нескольких червей…

Качество: BDRip 1080p
Формат: MKV
Видео кодек: H.264
Аудио кодек: AC3
Видео: (1920x1040) , 23.976 fps, 10.4 Mbps
Аудио#1: AC-3, 2 ch, 256 kbps (Rus) 48.0 KHz Профессиональный (многоголосый, закадровый)
Аудио#2: AC-3, 2 ch, 192 kbps (Rus) 48.0 KHz Авторский (Живов Юрий)
Аудио#3: AC-3, 2 ch, 192 kbps (Rus) 48.0 KHz Авторский (Володарский Леонид)
Аудио#4: AC-3, 2 ch,256 kbps (RUS) 48.0 KHz (Украинский)
Аудио#5: AC-3, 2 ch,192 kbps (Eng) 48.0 KHz (Оригинал)
скриншот   скриншот   скриншот  

General
Complete name : Drozhj.zemli.II.1996.BDRip.1080p.mkv
Format : Matroska
File size : 7.95 GiB
Duration : 1h 39mn
Overall bit rate : 11.4 Mbps
Encoded date : UTC 2013-08-21 05:27:03
Writing application : mkvmerge v6.1.0 ('Old Devil') built on Mar 2 2013 14:32:37
Writing library : libebml v1.3.0 + libmatroska v1.4.0

Video
ID : 1
Format : AVC
Format/Info : Advanced Video Codec
Format profile : High@L4.1
Format settings, CABAC : Yes
Format settings, ReFrames : 4 frames
Muxing mode : Container profile=Unknown@4.1
Codec ID : V_MPEG4/ISO/AVC
Duration : 1h 39mn
Bit rate : 10.4 Mbps
Width : 1 920 pixels
Height : 1 040 pixels
Display aspect ratio : 16:9
Frame rate : 23.976 fps
Color space : YUV
Chroma subsampling : 4:2:0
Bit depth : 8 bits
Scan type : Progressive
Bits/(Pixel*Frame) : 0.216
Stream size : 7.04 GiB (89%)
Writing library : x264 core 135 r2345 f0c1c53
Encoding settings : cabac=1 / ref=4 / deblock=1:-1:-1 / analyse=0x3:0x133 / me=umh / subme=10 / psy=1 / psy_rd=1.00:0.00 / mixed_ref=1 / me_range=32 / chroma_me=1 / trellis=2 / 8x8dct=1 / cqm=0 / deadzone=21,11 / fast_pskip=0 / chroma_qp_offset=-2 / threads=6 / lookahead_threads=1 / sliced_threads=0 / nr=0 / decimate=1 / interlaced=0 / bluray_compat=0 / constrained_intra=0 / bframes=10 / b_pyramid=2 / b_adapt=2 / b_bias=0 / direct=3 / weightb=1 / open_gop=0 / weightp=2 / keyint=240 / keyint_min=24 / scenecut=40 / intra_refresh=0 / rc_lookahead=50 / rc=2pass / mbtree=0 / bitrate=10357 / ratetol=2.0 / qcomp=1.00 / qpmin=0 / qpmax=51 / qpstep=4 / cplxblur=20.0 / qblur=0.5 / vbv_maxrate=50000 / vbv_bufsize=62500 / nal_hrd=none / ip_ratio=1.40 / pb_ratio=1.30 / aq=1:1.00
Color primaries : BT.709-5, BT.1361, IEC 61966-2-4, SMPTE RP177
Transfer characteristics : BT.709-5, BT.1361
Matrix coefficients : BT.709-5, BT.1361, IEC 61966-2-4 709, SMPTE RP177

Audio #1
ID : 2
Format : AC-3
Format/Info : Audio Coding 3
Mode extension : CM (complete main)
Codec ID : A_AC3
Duration : 1h 39mn
Bit rate mode : Constant
Bit rate : 256 Kbps
Channel(s) : 2 channels
Channel positions : Front: L R
Sampling rate : 48.0 KHz
Bit depth : 16 bits
Stream size : 182 MiB (2%)
Title : MVO
Language : Russian

Audio #2
ID : 3
Format : AC-3
Format/Info : Audio Coding 3
Mode extension : CM (complete main)
Codec ID : A_AC3
Duration : 1h 39mn
Bit rate mode : Constant
Bit rate : 192 Kbps
Channel(s) : 2 channels
Channel positions : Front: L R
Sampling rate : 48.0 KHz
Bit depth : 16 bits
Stream size : 137 MiB (2%)
Title : AVO - Ю.Живов
Language : Russian

Audio #3
ID : 4
Format : AC-3
Format/Info : Audio Coding 3
Mode extension : CM (complete main)
Codec ID : A_AC3
Duration : 1h 39mn
Bit rate mode : Constant
Bit rate : 192 Kbps
Channel(s) : 2 channels
Channel positions : Front: L R
Sampling rate : 48.0 KHz
Bit depth : 16 bits
Stream size : 137 MiB (2%)
Title : AVO - Л.Володарский
Language : Russian

Audio #4
ID : 5
Format : AC-3
Format/Info : Audio Coding 3
Mode extension : CM (complete main)
Codec ID : A_AC3
Duration : 1h 39mn
Bit rate mode : Constant
Bit rate : 256 Kbps
Channel(s) : 2 channels
Channel positions : Front: L R
Sampling rate : 48.0 KHz
Bit depth : 16 bits
Stream size : 182 MiB (2%)
Title : MVO
Language : Ukrainian

Audio #5
ID : 6
Format : AC-3
Format/Info : Audio Coding 3
Mode extension : CM (complete main)
Codec ID : A_AC3
Duration : 1h 39mn
Bit rate mode : Constant
Bit rate : 192 Kbps
Channel(s) : 2 channels
Channel positions : Front: L R
Sampling rate : 48.0 KHz
Bit depth : 16 bits
Stream size : 137 MiB (2%)

Text #1
ID : 7
Format : UTF-8
Codec ID : S_TEXT/UTF8
Codec ID/Info : UTF-8 Plain Text
Language : Russian

Text #2
ID : 8
Format : UTF-8
Codec ID : S_TEXT/UTF8
Codec ID/Info : UTF-8 Plain Text

Menu
00:00:00.000 : en:00:00:00.000
00:03:46.852 : en:00:03:46.852
00:09:51.966 : en:00:09:51.966
00:19:11.692 : en:00:19:11.692
00:25:12.761 : en:00:25:12.761
00:31:29.387 : en:00:31:29.387
00:41:07.632 : en:00:41:07.632
00:57:19.436 : en:00:57:19.436
01:04:32.744 : en:01:04:32.744
01:12:43.776 : en:01:12:43.776
01:15:43.539 : en:01:15:43.539
01:20:47.134 : en:01:20:47.134
01:25:18.905 : en:01:25:18.905
01:27:41.923 : en:01:27:41.923
01:32:41.556 : en:01:32:41.556
01:35:44.864 : en:01:35:44.864

pb.wtf



Скачать Дрожь земли 2: Повторный удар через торрент http://pic.kartinco.top/images/4/cspt1.jpg Скачать фильм Дрожь земли 2: Повторный удар через торрент бесплантно в хорошем качестве Описание: Гигантские черви «грабоиды» возвращаются, чтобы превратить Землю в большой шведский стол. Пока что древние хищники из ... 9.7 10 15
Info! Золотая раздача, скачанное не засчитывается.
Торрент: Зарегистрирован [2013-09-30 19:44] · скачан: 49 раз
Статус: √ проверено
Размер: 7.95 GB
Как cкачать? Как скачать Дрожь земли 2: Повторный удар через торрент | qTorrent

% Раздел Тема Автор DL S | L
Фильмы (DVD фильмы) [ 4.36 GB ] Дрожь земли 2: Повторный удар / Tremors II: Aftershocks [1996 DVD5 +MVO + original + sub] Timberwolf Скачать
1 | 0


Последний раз редактировалось: Бумер (2013-10-01 04:20), всего редактировалось 2 раз(а)

28-11-2019 20:33  

Отключить всю рекламу на сайте

30-09-2013 20:13 Дрожь земли 2: Повторный удар Скачать торрент  

ГАЙК

Цитата:

14.7 Скриншоты должны быть представлены в форматах .jpg (.jpeg) или .png. Скриншоты должны быть представлены в виде превью (вы видите маленькую картинку с надписью "Увеличить", а при нажатии в новом окне открывается скриншот в натуральную величину).

скриншот  
http://i2.imageban.ru/out/2013/10/01/97c197e33e344f6cb3bab1f69a26e517.pngpb.wtf



30-09-2013 22:03 Дрожь земли 2: Повторный удар Скачать торрент  

Такие скриншоты, как здесь, гораздо лучшеpb.wtf



    Дорогой пользователь! Огромная просьба, поблагодарите релизера, оцените раздачу и оставьте свои комментарий, если Вы скачали Дрожь земли 2: Повторный удар через торрент бесплатно! Внесите свою лепту в развитие PiratBit!
    Комментировать посты могут только пользователи прошедшие не сложную регистрацию
    Показать сообщения:    

    Дрожь земли 2: Повторный удар через торрент
    Скачать бесплатно Дрожь земли 2: Повторный удар
    Дрожь земли 2: Повторный удар скачать торрент
    Дрожь земли 2: Повторный удар смотреть онлайн
    Cкачать фильм Дрожь земли 2: Повторный удар бесплатно
    Дрожь земли 2: Повторный удар скачать торрент в хорошем качестве
    Дрожь земли 2: Повторный удар смотреть онлайн бесплатно в хорошем качестве


    Вы не можете начинать темы
    Вы не можете отвечать на сообщения
    Вы не можете редактировать свои сообщения
    Вы не можете удалять свои сообщения
    Вы не можете голосовать в опросах
    Вы не можете прикреплять файлы к сообщениям
    Вы можете скачивать файлы