новый адрес
Ссылка на приватное зеркало всего за 1$. Внимание количество ограничено!!!

iTunes

1+1

iTunes

мы

WEB-DL

1

iTunes

Чернобыль

iTunes

Ральф против интернета

Лицензия

ПШазам

Лицензия

Оно 2

Лицензия

30
pack

Вам бонус

ВАЖНО

!!Акция!!

Alien_RageХит недели

RePack

Resident Evil 21

ИГРА 18+

pack

RePack

jed

!!Акция!!

Alien_Rage

RePack

fifa19

RePack

Assassins Creed: Odyssey

RePack

NEED FOR SPEED™ PAYBACK

3 сезон

9 сезон

Бесстыжие 9 сезон

Все сериалы

все сериалы на PB.wtf

RePack

FAR CRY 5
Ребята, катастрофически не хватает 1900р. для оплаты серверов за Октябрь (всвязи с блокировками трафик упал в 3 раза), 1-2р., выручайте.
  

В тумане (Сергей Лозница) [2012 г., Драма, военный, история, BDRip 1080p] (Россия) Оригинал pb.wtf

В тумане через торрент pb.wtf

Размер: 11.79 GB | Добавлен: 6 лет 2 мес. назад | Торрент скачан:62 раза
Скачать  

02-10-2013 16:10 В тумане Скачать торрент  

В тумане
Год выпуска: 2012
Страна: Россия
Жанр: Драма, военный, история,
Продолжительность: 02:07:45
Перевод: Оригинал
Субтитры: Английские

Режиссер: Сергей Лозница

В ролях: Владимир Свирский, Владислав Абашин, Сергей Колесов, Никита Перемотов, Юлия Пересильд, Кирилл Петров, Дмитрий Колосов, Степан Богданов, Дмитрий Быковский, Влад Иванов, Игорь Хрипунов, Надежда Маркина, Борис Каморзин, Михаил Евланов, Сергей Русскин, Тимофей Трибунцев,

Описание: Действие исторической драмы происходит в 1942 году в оккупированной немцами Белоруссии. Путевого обходчика Сущеню ложно обвиняют в сотрудничестве с оккупантами. Два партизана приезжают на хутор к Сущене, чтобы совершить расправу. В надежде доказать свою невиновность Сущеня пытается сделать моральный выбор в аморальных обстоятельствах.

Качество: BDRip 1080p
Формат: MKV
Видео кодек: H.264
Аудио кодек: AC3
Видео: (1920x816) 24.000 fps 12.3 Мбит/с
Аудио#1: AC-3, 2 ch, 192 kbps (Rus) 48.0 KHz Оригинал
скриншот   скриншот   скриншот  

V tumane 2012 1080p BluRay DD5.1 x264-EA.mkv
Format : Matroska
Format version : Version 4 / Version 2
File size : 11.8 GiB
Duration : 2h 7mn
Overall bit rate : 13.2 Mbps
Movie name : Sergei Loznitsa-In the Fog (2012)
Encoded date : UTC 2013-09-29 03:58:30
Writing application : mkvmerge v6.4.1 ('Omega Point') built on Sep 16 2013 22:05:10
Writing library : libebml v1.3.0 + libmatroska v1.4.1

Video
ID : 1
Format : AVC
Format/Info : Advanced Video Codec
Format profile : High@L4.1
Format settings, CABAC : Yes
Format settings, ReFrames : 5 frames
Codec ID : V_MPEG4/ISO/AVC
Duration : 2h 7mn
Bit rate : 12.3 Mbps
Width : 1 920 pixels
Height : 816 pixels
Display aspect ratio : 2.35:1
Frame rate mode : Constant
Frame rate : 24.000 fps
Color space : YUV
Chroma subsampling : 4:2:0
Bit depth : 8 bits
Scan type : Progressive
Bits/(Pixel*Frame) : 0.327
Stream size : 11.0 GiB (93%)
Title : -EA
Writing library : x264 core 133 r2334 a3ac64b
Encoding settings : cabac=1 / ref=5 / deblock=1:-3:-3 / analyse=0x3:0x113 / me=umh / subme=11 / psy=1 / psy_rd=1.10:0.00 / mixed_ref=1 / me_range=32 / chroma_me=1 / trellis=2 / 8x8dct=1 / cqm=0 / deadzone=21,11 / fast_pskip=0 / chroma_qp_offset=-2 / threads=12 / lookahead_threads=3 / sliced_threads=0 / nr=0 / decimate=0 / interlaced=0 / bluray_compat=0 / constrained_intra=0 / bframes=10 / b_pyramid=2 / b_adapt=2 / b_bias=0 / direct=3 / weightb=1 / open_gop=0 / weightp=2 / keyint=230 / keyint_min=23 / scenecut=40 / intra_refresh=0 / rc_lookahead=50 / rc=crf / mbtree=0 / crf=18.8 / qcomp=0.75 / qpmin=0 / qpmax=69 / qpstep=4 / vbv_maxrate=62500 / vbv_bufsize=78125 / crf_max=0.0 / nal_hrd=none / ip_ratio=1.40 / pb_ratio=1.30 / aq=1:0.75
Language : Belarusian
Default : Yes
Forced : No
Color primaries : BT.709
Transfer characteristics : BT.709
Matrix coefficients : BT.709

Audio
ID : 2
Format : AC-3
Format/Info : Audio Coding 3
Mode extension : CM (complete main)
Format settings, Endianness : Big
Codec ID : A_AC3
Duration : 2h 7mn
Bit rate mode : Constant
Bit rate : 640 Kbps
Channel(s) : 6 channels
Channel positions : Front: L C R, Side: L R, LFE
Sampling rate : 48.0 KHz
Bit depth : 16 bits
Compression mode : Lossy
Stream size : 585 MiB (5%)
Language : Russian
Default : Yes
Forced : No

Text #1
ID : 3
Format : UTF-8
Codec ID : S_TEXT/UTF8
Codec ID/Info : UTF-8 Plain Text
Title : srt
Language : English
Default : Yes
Forced : No

Text #2
ID : 4
Format : PGS
Muxing mode : zlib
Codec ID : S_HDMV/PGS
Codec ID/Info : The same subtitle format used on BDs/HD-DVDs
Title : sup
Language : English
Default : No
Forced : No

Menu
00:00:00.000 : en:00:00:00.000
00:05:20.417 : en:00:05:20.417
00:12:42.167 : en:00:12:42.167
00:18:33.583 : en:00:18:33.583
00:23:51.250 : en:00:23:51.250
00:30:00.708 : en:00:30:00.708
00:36:22.708 : en:00:36:22.708
00:42:43.917 : en:00:42:43.917
00:48:50.708 : en:00:48:50.708
00:53:53.458 : en:00:53:53.458
01:01:39.500 : en:01:01:39.500
01:06:59.875 : en:01:06:59.875
01:13:18.792 : en:01:13:18.792
01:18:43.333 : en:01:18:43.333
01:26:28.792 : en:01:26:28.792
01:31:57.583 : en:01:31:57.583
01:37:33.208 : en:01:37:33.208
01:42:12.250 : en:01:42:12.250
01:48:56.000 : en:01:48:56.000
01:55:30.292 : en:01:55:30.292
02:00:45.167 : en:02:00:45.167

pb.wtf



Скачать В тумане через торрент http://pic.kartinco.top/images/4/au277.jpg Скачать фильм В тумане через торрент бесплантно в хорошем качестве Описание: Действие исторической драмы происходит в 1942 году в оккупированной немцами Белоруссии. Путевого обходчика Сущеню ложно обвиняют ... 9.4 10 9
Info! Золотая раздача, скачанное не засчитывается.
Торрент: Зарегистрирован [2013-10-02 16:10] · скачан: 62 раз
Статус: √ проверено
Размер: 11.79 GB
Как cкачать? Как скачать В тумане через торрент | qTorrent

28-11-2019 20:33  

Отключить всю рекламу на сайте

02-10-2013 16:52 В тумане Скачать торрент  

Эх... всё за вас делай,а это где? pb.wtf



04-10-2013 17:10 В тумане Скачать торрент  

Да ладно не вяжисьpb.wtf



    Дорогой пользователь! Огромная просьба, поблагодарите релизера, оцените раздачу и оставьте свои комментарий, если Вы скачали В тумане через торрент бесплатно! Внесите свою лепту в развитие PiratBit!
    Комментировать посты могут только пользователи прошедшие не сложную регистрацию
    Показать сообщения:    

    В тумане через торрент
    Скачать бесплатно В тумане
    В тумане скачать торрент
    В тумане смотреть онлайн
    Cкачать фильм В тумане бесплатно
    В тумане скачать торрент в хорошем качестве
    В тумане смотреть онлайн бесплатно в хорошем качестве


    Вы не можете начинать темы
    Вы не можете отвечать на сообщения
    Вы не можете редактировать свои сообщения
    Вы не можете удалять свои сообщения
    Вы не можете голосовать в опросах
    Вы не можете прикреплять файлы к сообщениям
    Вы можете скачивать файлы