2 сезон

iTunes

MVO

1

2 сезон

iTunes

iTunes

1 сезон

RePack

30

Ultimate

ВАЖНО

ИГРА 18+

pack

RePack

MK11
pack

Легкие деньги

RePack

jed

RePack

fifa19

RePack

RDR2

RePack

NEED FOR SPEED™ PAYBACK

4 сезон

9 сезон

Бесстыжие 9 сезон

Все сериалы

все сериалы на PB.wtf

RePack

FAR CRY 5

Anonymous, доброй ночи, мы не успеваем собрать деньги на оплату серверов за декабрь и январь, помогите нам пожалуйста в это трудное время. В качестве благодарности мы отключим Вам всю рекламу на сайте (укажите свой ник в строку Ваше имя)!

×
  
Magnet ссылка

Одинокий рейнджер / The Lone Ranger (Гор Вербински / Gore Verbinski) [2013 г., Вестерн, приключения, боевик, комедия, BDRip-AVC, Дубляж, Лицензия] pb.wtf

Одинокий рейнджер через торрент pb.wtf

Размер: 2.91 GB | Добавлен: 7 лет 3 мес. назад | Торрент скачан:3229 раз
Скачать  

03-10-2013 19:33 Одинокий рейнджер Скачать торрент  

Одинокий рейнджер / The Lone Ranger
Год выпуска: 2013
Страна: США / Walt Disney Studios Motion Pictures, Blind Wink Productions, Classic Media, Infinitum Nihil Production, Jerry Bruckheimer Films, Silver Bullet Productions (II)
Жанр: Вестерн, приключения, боевик, комедия,
Продолжительность: 02:29:33
Перевод: Дубляж, Лицензия
Субтитры: Русские (полные + форс.), английские (SDH + форс.).

Режиссер: Гор Вербински / Gore Verbinski



В ролях: Джонни Депп, Арми Хаммер, Том Уилкинсон, Уильям Фихтнер, Барри Пеппер, Джеймс Бэдж Дэйл, Хелена Бонем Картер, Рут Уилсон, Джеймс Фрейн, Чед Брамметт,

Описание: История блюстителя закона Джона Рида, который с помощью индейца Тонто стал легендарным мстителем в маске, стоящим на защите справедливости. Тонто с юмором и небылицами повествует о тех приключениях, которые пришлось пережить двум непохожим друг на друга героям, сведенным судьбой для того, чтобы вместе сражаться против общего врага. Им приходится противостоять жадности и коррупции во времена, когда появление первых железных дорог изменило представление о власти и могуществе в мире.

Качество: BDRip-AVC
Формат: MKV
Видео кодек: H.264
Аудио кодек: AC3
Видео: 1056x440 (2,40:1), 23,976 fps, 1889 Кbps, 0.170 bit/pixel
Аудио#1: 48 kHz, AC3 Dolby Digital, 3/2 (L,C,R,l,r) + LFE ch, 448.00 kbps | RUS
Аудио#2: 48 kHz, AC3 Dolby Digital, 3/2 (L,C,R,l,r) + LFE ch, 448.00 kbps | ENG

Релиз группы:
Автор рипа: potroks





Общее
Уникальный идентификатор : 232848645786242561511424178731706645606 (0xAF2D0497E92716A091AE15FCDFE27C66)
Полное имя : Odinokij.Rejndzher.2013.DUAL.BDRip.x264.HELLYWOOD.mkv
Формат : Matroska
Версия формата : Version 4 / Version 2
Размер файла : 2,91 Гбайт
Продолжительность : 2 ч. 29 м.
Общий поток : 2788 Кбит/сек
Название фильма : HELLYWOOD - rip by potroks
Дата кодирования : UTC 2013-10-03 19:03:27
Программа кодирования : mkvmerge v5.9.0 ('On The Loose') built on Dec 15 2012 16:39:58
Библиотека кодирования : libebml v1.3.0 + libmatroska v1.4.0

Видео
Идентификатор : 1
Формат : AVC
Формат/Информация : Advanced Video Codec
Профиль формата : High@L4.1
Параметр CABAC формата : Да
Параметр ReFrames формата : 10 кадров
Идентификатор кодека : V_MPEG4/ISO/AVC
Продолжительность : 2 ч. 29 м.
Битрейт : 1889 Кбит/сек
Ширина : 1056 пикселей
Высота : 440 пикселей
Соотношение сторон : 2,40:1
Режим частоты кадров : Постоянный
Частота кадров : 23,976 кадра/сек
Цветовое пространство : YUV
Субдискретизация насыщенности : 4:2:0
Битовая глубина : 8 бит
Тип развёртки : Прогрессивная
Бит/(Пиксели*Кадры) : 0.170
Размер потока : 1,92 Гбайт (66%)
Заголовок : The Lone Ranger
Библиотека кодирования : x264 core 130 r2273 b3065e6
Настройки программы : cabac=1 / ref=10 / deblock=1:-2:-1 / analyse=0x3:0x133 / me=umh / subme=11 / psy=1 / psy_rd=1.03:0.00 / mixed_ref=1 / me_range=32 / chroma_me=1 / trellis=2 / 8x8dct=1 / cqm=0 / deadzone=21,11 / fast_pskip=0 / chroma_qp_offset=-2 / threads=12 / lookahead_threads=3 / sliced_threads=0 / nr=0 / decimate=0 / interlaced=0 / bluray_compat=0 / constrained_intra=0 / bframes=11 / b_pyramid=2 / b_adapt=2 / b_bias=0 / direct=3 / weightb=1 / open_gop=0 / weightp=2 / keyint=240 / keyint_min=23 / scenecut=40 / intra_refresh=0 / rc_lookahead=60 / rc=2pass / mbtree=0 / bitrate=1889 / ratetol=1.0 / qcomp=0.70 / qpmin=0 / qpmax=69 / qpstep=4 / cplxblur=20.0 / qblur=0.5 / vbv_maxrate=20000 / vbv_bufsize=20000 / nal_hrd=none / ip_ratio=1.35 / pb_ratio=1.25 / aq=1:0.70
Язык : English
Default : Да
Forced : Нет

Аудио #1
Идентификатор : 2
Формат : AC-3
Формат/Информация : Audio Coding 3
Расширение режима : CM (complete main)
Параметр Endianness формата : Big
Идентификатор кодека : A_AC3
Продолжительность : 2 ч. 29 м.
Вид битрейта : Постоянный
Битрейт : 448 Кбит/сек
Каналы : 6 каналов
Расположение каналов : Front: L C R, Side: L R, LFE
Частота : 48,0 КГц
Битовая глубина : 16 бит
Метод сжатия : С потерями
Размер потока : 479 Мбайт (16%)
Заголовок : Dub | DD 5.1 @ 448 kbps - BD EUR
Язык : Russian
Default : Да
Forced : Да

Аудио #2
Идентификатор : 3
Формат : AC-3
Формат/Информация : Audio Coding 3
Расширение режима : CM (complete main)
Параметр Endianness формата : Big
Идентификатор кодека : A_AC3
Продолжительность : 2 ч. 29 м.
Вид битрейта : Постоянный
Битрейт : 448 Кбит/сек
Каналы : 6 каналов
Расположение каналов : Front: L C R, Side: L R, LFE
Частота : 48,0 КГц
Битовая глубина : 16 бит
Метод сжатия : С потерями
Размер потока : 479 Мбайт (16%)
Заголовок : Original | DD 5.1 @ 448 kbps - BD EUR
Язык : Russian
Default : Нет
Forced : Нет

Текст #1
Идентификатор : 4
Формат : UTF-8
Идентификатор кодека : S_TEXT/UTF8
Идентификатор кодека/Информация : UTF-8 Plain Text
Заголовок : Forced
Язык : Russian
Default : Да
Forced : Да

Текст #2
Идентификатор : 5
Формат : UTF-8
Идентификатор кодека : S_TEXT/UTF8
Идентификатор кодека/Информация : UTF-8 Plain Text
Язык : Russian
Default : Нет
Forced : Нет

Текст #3
Идентификатор : 6
Формат : UTF-8
Идентификатор кодека : S_TEXT/UTF8
Идентификатор кодека/Информация : UTF-8 Plain Text
Заголовок : Forced
Язык : English
Default : Нет
Forced : Нет

Текст #4
Идентификатор : 7
Формат : UTF-8
Идентификатор кодека : S_TEXT/UTF8
Идентификатор кодека/Информация : UTF-8 Plain Text
Заголовок : SDH
Язык : English
Default : Нет
Forced : Нет

Меню
00:00:00.000 : en:00:00:00.000
00:08:16.121 : en:00:08:16.121
00:13:38.776 : en:00:13:38.776
00:24:51.407 : en:00:24:51.407
00:29:03.033 : en:00:29:03.033
00:32:05.841 : en:00:32:05.841
00:40:32.013 : en:00:40:32.013
00:45:29.644 : en:00:45:29.644
00:53:29.665 : en:00:53:29.665
01:01:05.662 : en:01:01:05.662
01:10:01.614 : en:01:10:01.614
01:16:12.318 : en:01:16:12.318
01:24:45.455 : en:01:24:45.455
01:28:39.731 : en:01:28:39.731
01:35:35.188 : en:01:35:35.188
01:41:13.985 : en:01:41:13.985
01:46:35.806 : en:01:46:35.806
01:50:02.179 : en:01:50:02.179
01:53:55.203 : en:01:53:55.203
01:56:15.260 : en:01:56:15.260
02:01:51.095 : en:02:01:51.095
02:12:07.211 : en:02:12:07.211
02:17:13.934 : en:02:17:13.934
02:20:20.287 : en:02:20:20.287

pb.wtf



Скачать Одинокий рейнджер через торрент http://uploadpic.ru/img/2013-10/03/opzbinvsnyme5vxuw68zn2cjm.png Скачать фильм Одинокий рейнджер через торрент бесплантно в хорошем качестве Описание: История блюстителя закона Джона Рида, который с помощью индейца Тонто стал легендарным мстителем в маске, стоящим на защите ... 9.8 10 57
Info! Золотая раздача, скачанное не засчитывается.
Торрент: Зарегистрирован [2013-10-03 19:33] · скачан: 3 229 раз
Статус: √ проверено
Размер: 2.91 GB
Как cкачать? Как скачать Одинокий рейнджер через торрент | UTorrent

% Раздел Тема Автор DL S | L
Фильмы [HD 720p, 1080p] (Хороший звук DUB, MVO) [ 16.87 GB ] Одинокий рейнджер / The Lone Ranger [2013 BDRip 1080p DUB ] от R.G. HD-Films Seedtank Скачать
1 | 0
Классика зарубежного кино [ 753 MB ] Одинокий рейнджер и город золота / The Lone Ranger and the Lost City of Gold [1958 WEBRip-AVC] killermax2013 Скачать
1 | 0
Фильмы 2013 [DVDrip, WEB-DLRip, HDrip] [ 3.14 GB ] Одинокий рейнджер / The Lone Ranger [ 2013 BDRip-AVC ] МАКС1 Скачать
1 | 0
Фильмы 2013 [DVDrip, WEB-DLRip, HDrip] [ 1.45 GB ] Одинокий рейнджер / The Lone Ranger [2013 HDRip [] Ворон Скачать
1 | 0
Фильмы 2013 [DVDrip, WEB-DLRip, HDrip] [ 2.05 GB ] Одинокий рейнджер / The Lone Ranger [2013 BDRip ] VintMosina Скачать
1 | 0
Фильмы [HD 720p, 1080p] (Хороший звук DUB, MVO) [ 5.15 GB ] Одинокий рейнджер / The Lone Ranger [2013 BDRip 720p ] potroks Скачать
2 | 0
Фильмы [HD 720p, 1080p] (Хороший звук DUB, MVO) [ 8.52 GB ] Одинокий рейнджер / The Lone Ranger [2013 BDRip ] VintMosina Скачать
1 | 0

28-11-2019 20:33  

Отключить всю рекламу на сайте

03-10-2013 19:40 Одинокий рейнджер Скачать торрент  

04-10-2013 06:54 Одинокий рейнджер Скачать торрент  

Спасибо за трудыpb.wtf



05-10-2013 17:22 Одинокий рейнджер Скачать торрент  

Фильм Класс ! Позитив ! Оставил в колекции ! Джони Деп pb.wtf



    Дорогой пользователь! Огромная просьба, поблагодарите релизера, оцените раздачу и оставьте свои комментарий, если Вы скачали Одинокий рейнджер через торрент бесплатно! Внесите свою лепту в развитие PiratBit!
    Комментировать посты могут только пользователи прошедшие не сложную регистрацию
    Показать сообщения:    

    Одинокий рейнджер через торрент
    Скачать бесплатно Одинокий рейнджер
    Одинокий рейнджер скачать торрент
    Одинокий рейнджер смотреть онлайн
    Cкачать фильм Одинокий рейнджер бесплатно
    Одинокий рейнджер скачать торрент в хорошем качестве
    Одинокий рейнджер смотреть онлайн бесплатно в хорошем качестве


    Вы не можете начинать темы
    Вы не можете отвечать на сообщения
    Вы не можете редактировать свои сообщения
    Вы не можете удалять свои сообщения
    Вы не можете голосовать в опросах
    Вы не можете прикреплять файлы к сообщениям
    Вы можете скачивать файлы