Ссылка на приватное зеркало нашего сайта всего за 1$. Внимание количество ограничено!!!

2 сезон

iTunes

1 сезон

1

iTunes

iTunes

iTunes

1 сезон

RePack

30

ИГРА 18+

pack

ВАЖНО

!!Акция!!

Alien_RageХит недели

RePack

MK11
pack

Забери бонус

RePack

jed

!!Акция!!

Alien_Rage

RePack

fifa19

RePack

Assassins Creed: Odyssey

RePack

NEED FOR SPEED™ PAYBACK

4 сезон

9 сезон

Бесстыжие 9 сезон

Все сериалы

все сериалы на PB.wtf

RePack

FAR CRY 5
  

Изнанка города / Wrong Side of Town (Дэвид ДеФалко / David DeFalco) [2010 г., боевик, комедия, криминал, HDRip, Профессиональный многоголосый, Лицензия] pb.wtf

Изнанка города через торрент pb.wtf

Размер: 1.46 GB | Добавлен: 7 лет назад | Торрент скачан:112 раз
Скачать  

04-10-2013 17:37 Изнанка города Скачать торрент  

Изнанка города / Wrong Side of Town
Год выпуска: 2010
Страна: США
Жанр: боевик, комедия, криминал,
Продолжительность: 01:25:13
Перевод: Профессиональный многоголосый, Лицензия
Субтитры: нет

Режиссер: Дэвид ДеФалко / David DeFalco
Продюссер: Дэвид ДеФалко, Джейсон Хьюит, Карстен Х.В. Лоренц
Сценарий: Дэвид ДеФалко

Бюджет: $1 500 000
Премьера в мире: 4 ноября 2009,

В ролях: Сторми, Дэйв Батиста, Джа Рул, Роб Ван Дам, Кэти Найтен, Рендал Ридер, Луис Хертэм, Лара Грис, Скотт Л. Шварц, Эрик Браун,

Описание: Бывший морской пехотинец собирает команду сослуживцев и начинает охоту за похитителями своей дочери.

Качество: HDRip
Формат: AVI
Видео кодек: XviD
Аудио кодек: AC3
Видео: 720x400 (16/9), 23.976 fps, 1 795 Kbps (0.260 bit/pixel)
Аудио#1: 48.0 KHz, 2 ch, 192 Kbps, CBR - русский
Аудио#2: 48.0 KHz, 6 ch, 448 Kbps, CBR - английский
скриншот   скриншот   скриншот   скриншот   скриншот  





Общее
Полное имя : D:Изнанка города.avi
Формат : AVI
Формат/Информация : Audio Video Interleave
Размер файла : 1,46 Гбайт
Продолжительность : 1 ч. 25 м.
Общий поток : 2449 Кбит/сек
Название фильма : Изнанка города / Wrong Side of Town (2010)
Режиссёр : miha2154
Программа кодирования : VirtualDubMod 1.5.10.2 (build 2540/release)
Библиотека кодирования : VirtualDubMod build 2540/release
Правообладатель : специально для BitTorrent трекер RuTracker.org

Видео
Идентификатор : 0
Формат : MPEG-4 Visual
Профиль формата : Advanced Simple@L5
Параметр BVOP формата : 2
Параметр QPel формата : Нет
Параметр GMC формата : Без точки перехода
Параметр матрицы формата : Default (MPEG)
Режим смешивания : Сжатый битовый поток
Идентификатор кодека : XVID
Идентификатор кодека/Подсказка : XviD
Продолжительность : 1 ч. 25 м.
Битрейт : 1795 Кбит/сек
Ширина : 720 пикселей
Высота : 400 пикселей
Соотношение сторон : 16:9
Частота кадров : 23,976 кадра/сек
Цветовое пространство : YUV
Субдискретизация насыщенности : 4:2:0
Битовая глубина : 8 бит
Тип развёртки : Прогрессивная
Метод сжатия : С потерями
Бит/(Пиксели*Кадры) : 0.260
Размер потока : 1,07 Гбайт (73%)
Библиотека кодирования : XviD 1.1.0 (UTC 2005-11-22)

Аудио #1
Идентификатор : 1
Формат : AC-3
Формат/Информация : Audio Coding 3
Расширение режима : CM (complete main)
Параметр Endianness формата : Big
Идентификатор кодека : 2000
Продолжительность : 1 ч. 25 м.
Вид битрейта : Постоянный
Битрейт : 192 Кбит/сек
Каналы : 2 канала
Расположение каналов : Front: L R
Частота : 48,0 КГц
Битовая глубина : 16 бит
Метод сжатия : С потерями
Задержка видео : 14 мс.
Размер потока : 117 Мбайт (8%)
Выравнивание : Разделение по промежуткам
Продолжительность промежутка : 42 мс. (1,00 видеокадр)
Время предзагрузки промежутка : 500 мс.
Заголовок : Профессиональный (многоголосый, закадровый) Перец

Аудио #2
Идентификатор : 2
Формат : AC-3
Формат/Информация : Audio Coding 3
Расширение режима : CM (complete main)
Параметр Endianness формата : Big
Идентификатор кодека : 2000
Продолжительность : 1 ч. 25 м.
Вид битрейта : Постоянный
Битрейт : 448 Кбит/сек
Каналы : 6 каналов
Расположение каналов : Front: L C R, Side: L R, LFE
Частота : 48,0 КГц
Битовая глубина : 16 бит
Метод сжатия : С потерями
Размер потока : 273 Мбайт (18%)
Выравнивание : Разделение по промежуткам
Продолжительность промежутка : 42 мс. (1,00 видеокадр)
Время предзагрузки промежутка : 500 мс.
Заголовок : Английский


Изнанка города скачать торрент


pb.wtf



Скачать Изнанка города через торрент http://pic.kartinco.top/images/4/is2zi.jpg Скачать фильм Изнанка города через торрент бесплантно в хорошем качестве Описание: Бывший морской пехотинец собирает команду сослуживцев и начинает охоту за похитителями своей ... 10 10 5
Info! Золотая раздача, скачанное не засчитывается.
Торрент: Зарегистрирован [2013-10-04 17:37] · скачан: 112 раз
Статус: √ проверено
Размер: 1.46 GB
Как cкачать? Как скачать Изнанка города через торрент | qTorrent

% Раздел Тема Автор DL S | L
Фильмы 2010 [ 1.37 GB ] Изнанка города / Wrong Side of Town [2010 HDRip] ACFIORENTINA Скачать
1 | 0
Фильмы 2010 [ 751 MB ] Изнанка города / Wrong Side of Town [2010 HDRip] WISE Скачать
1 | 0

28-11-2019 20:33  

Отключить всю рекламу на сайте

04-10-2013 20:30 Изнанка города Скачать торрент  

Описание соответствует бюджету pb.wtf



    Дорогой пользователь! Огромная просьба, поблагодарите релизера, оцените раздачу и оставьте свои комментарий, если Вы скачали Изнанка города через торрент бесплатно! Внесите свою лепту в развитие PiratBit!
    Комментировать посты могут только пользователи прошедшие не сложную регистрацию
    Показать сообщения:    

    Изнанка города через торрент
    Скачать бесплатно Изнанка города
    Изнанка города скачать торрент
    Изнанка города смотреть онлайн
    Cкачать фильм Изнанка города бесплатно
    Изнанка города скачать торрент в хорошем качестве
    Изнанка города смотреть онлайн бесплатно в хорошем качестве


    Вы не можете начинать темы
    Вы не можете отвечать на сообщения
    Вы не можете редактировать свои сообщения
    Вы не можете удалять свои сообщения
    Вы не можете голосовать в опросах
    Вы не можете прикреплять файлы к сообщениям
    Вы можете скачивать файлы