Ссылка на приватное зеркало нашего сайта всего за 1$. Внимание количество ограничено!!!

2 сезон

iTunes

1 сезон

1

2 сезон

2 сезон

iTunes

1 сезон

RePack

30

Новинка

ВАЖНО

ИГРА 18+

pack

RePack

MK11
pack

Забери бонус

RePack

jed

!!Акция!!

Alien_Rage

RePack

fifa19

RePack

Assassins Creed: Odyssey

RePack

NEED FOR SPEED™ PAYBACK

4 сезон

9 сезон

Бесстыжие 9 сезон

Все сериалы

все сериалы на PB.wtf

RePack

FAR CRY 5
  

Робин Гуд / Robin Hood (Сезон: 1: Серия 13 из 13) (Мэттью Эванс, Грэм Харпер, Деклан О’Двайр) [2006 г., боевик, драма, мелодрама, приключения, DVDRip] DVO (студия "Инис") pb.wtf

Робин Гуд через торрент pb.wtf

Размер: 4.99 GB | Добавлен: 7 лет 1 мес. назад | Торрент скачан:103 раза
Скачать  

05-10-2013 08:30 Робин Гуд Скачать торрент  

Робин Гуд / Robin Hood
Год выпуска: 2006
Страна: Великобритания
Жанр: боевик, драма, мелодрама, приключения,
Продолжительность: ~00:45:00
Перевод: Профессиональный, закадровый, двухголосый |студия "Инис"| + Оригинал

Режиссер: Мэттью Эванс Грэм Харпер Деклан О’Двайр
Продюссер: Фоз Аллан, Грег Бренмен, Доминик Мингелла
Сценарий: Доминик Мингелла, Фоз Аллан, СиДжей Эшфорд

Бюджет: £8 000 000
Премьера в мире: 7 октября 2006


Кинопоиск: 7.696 (1997)

В ролях: Джонас Армстронг, Гордон Кеннеди, Сэм Тротон, Джо Армстронг, Ричард Армитидж, Кит Аллен, Люси Гриффитс, Гарри Ллойд, Анджали Джай, Майкл Элвин,

Описание: Робин возвращается домой из Крестового похода в родовое поместье в Локсли и видит там голодающих и измученных людей. Всему виной новый наместник — Шериф, установивший непосильные налоги и жестокие порядки.

Робин сразу понимает, что урезонить шерифа можно только взяв Влacть в свои руки при помощи лука и стрел. Он полон решимости, даже если для этого придется отказаться от своего титула и земель.

Качество: DVDRip
Формат: AVI
Видео кодек: XviD
Аудио кодек: MP3
Видео: 624x352 (16/9), 25.000 fps, 992 Kbps, (0.181 bit/pixel)
Аудио: RUS 48.0 KHz, 2 ch, 111 Kbps |студия «Инис»|
Аудио: Eng 48.0 KHz, 2 ch, 128 Kbps |Original|



Формат : AVI
Формат/Информация : Audio Video Interleave
Размер файла : 393 Мбайт
Продолжительность : 43 м.
Режим общего битрейта : Переменный
Общий поток : 1253 Кбит/сек
Программа кодирования : VirtualDubMod 1.5.4.1 (build 2178/release)
Библиотека кодирования : VirtualDubMod build 2178/release

Видео
Идентификатор : 0
Формат : MPEG-4 Visual
Профиль формата : Advanced Simple@L5
Параметр BVOP формата : 1
Параметр QPel формата : Нет
Параметр GMC формата : Без точки перехода
Параметр матрицы формата : Выборочная
Идентификатор кодека : XVID
Идентификатор кодека/Подсказка : XviD
Продолжительность : 43 м.
Битрейт : 992 Кбит/сек
Ширина : 624 пикселя
Высота : 352 пикселя
Соотношение сторон : 16:9
Частота кадров : 25,000 кадров/сек
Цветовое пространство : YUV
Субдискретизация насыщенности : 4:2:0
Битовая глубина : 8 бит
Тип развёртки : Прогрессивная
Метод сжатия : С потерями
Бит/(Пиксели*Кадры) : 0.181
Размер потока : 311 Мбайт (79%)
Библиотека кодирования : XviD 1.2.0.dev47 (UTC 2006-11-01)

Аудио #1
Идентификатор : 1
Формат : MPEG Audio
Версия формата : Version 1
Профиль формата : Layer 3
Режим : Joint stereo
Расширение режима : MS Stereo
Идентификатор кодека : 55
Идентификатор кодека/Подсказка : MP3
Продолжительность : 43 м.
Вид битрейта : Переменный
Битрейт : 112 Кбит/сек
Номинальный битрейт : 128 Кбит/сек
Каналы : 2 канала
Частота : 48,0 КГц
Метод сжатия : С потерями
Размер потока : 35,0 Мбайт (9%)
Выравнивание : Соединение по промежуткам
Продолжительность промежутка : 24 мс. (0,60 видеокадр)
Время предзагрузки промежутка : 481 мс.
Библиотека кодирования : LAME3.97
Настройки программы : -m j -V 4 -q 2 -lowpass 17 --abr 128
Язык : Russian

Аудио #2
Идентификатор : 2
Формат : MPEG Audio
Версия формата : Version 1
Профиль формата : Layer 3
Идентификатор кодека : 55
Идентификатор кодека/Подсказка : MP3
Продолжительность : 43 м.
Вид битрейта : Переменный
Битрейт : 128 Кбит/сек
Минимальный битрейт : 96,0 Кбит/сек
Каналы : 2 канала
Частота : 48,0 КГц
Метод сжатия : С потерями
Размер потока : 40,1 Мбайт (10%)
Выравнивание : Соединение по промежуткам
Продолжительность промежутка : 24 мс. (0,60 видеокадр)
Время предзагрузки промежутка : 498 мс.
Библиотека кодирования : LAME3.97
Настройки программы : -m s -V 4 -q 5 -lowpass 17.5 --vbr-new -b 96

pb.wtf



Скачать Робин Гуд через торрент http://pic.kartinco.top/images/4/e5e2u.jpg Скачать фильм Робин Гуд через торрент бесплантно в хорошем качестве Описание: Робин возвращается домой из Крестового похода в родовое поместье в Локсли и видит там голодающих и измученных людей. Всему виной ... 9.7 10 7
Info! Золотая раздача, скачанное не засчитывается.
Торрент: Зарегистрирован [2013-10-05 08:30] · скачан: 103 раз
Статус: √ проверено
Размер: 4.99 GB
Как cкачать? Как скачать Робин Гуд через торрент | qTorrent

% Раздел Тема Автор DL S | L
Фильмы 2018 [DVDrip, WEB-DLRip, HDrip] (DUB, MVO) [ 1.46 GB ] Робин Гуд: Начало / Robin Hood [2018 WEB-DLRip] [Локализованный видеоряд] killermax2013 Скачать
3 | 0
Фильмы (HD 720p, 1080p) (48-60 fps) [ 26.48 GB ] Робин Гуд: Начало / Robin Hood [2018 BDRip 1080p 60 fps] sheker187 Скачать
1 | 0
T Фильмы с украинским озвучиванием [ 3.58 GB ] Робин Гуд: Начало / Robin Hood [2018 WEBRip 1080p] [Ukr DUB] killermax2013 Скачать
1 | 0
Ultra HD (UHD: 2K, 4K, 8K) — видео сверхвысокой чёткости [ 85.87 GB ] Робин Гуд: Начало / Robin Hood [2018 UHD Blu-ray 2160p] [Dolby Vision] sheker187 Скачать
1 | 0
Фильмы 2018 [DVDrip, WEB-DLRip, HDrip] (DUB, MVO) [ 2.13 GB ] Робин Гуд: Начало / Robin Hood [2018 BDRip] - Twi7ter Скачать
5 | 0
Фильмы [HD 720p, 1080p] (Хороший звук DUB, MVO) [ 9.5 GB ] Робин Гуд: Начало / Robin Hood [2018 BDRip 1080p] MVO [HDrezka Studio] + bober100 Скачать
3 | 0
Фильмы 2018 [DVDrip, WEB-DLRip, HDrip] (DUB, MVO) [ 1.41 GB ] Робин Гуд: Начало / Robin Hood [2018 BDRip] bober100 Скачать
2 | 0


Последний раз редактировалось: Fantomas94 (2013-10-05 15:29), всего редактировалось 1 раз

28-11-2019 20:33  

Отключить всю рекламу на сайте

05-10-2013 09:04 Робин Гуд Скачать торрент  

Fantomas94 писал(а):

Профессиональный |NovaFilm|

Будьте внимательнее. С сайта новафилм (http://novafilm.tv/topic/5074.html)

novafilm писал(а):

профессиональная, закадровая, двухголосая (студия «Инис»).

Заголовок соответственно исправьте на

Код:

Робин Гуд / Robin Hood (Сезон 1: Серия 13 из 13) (Мэттью Эванс, Грэм Харпер, Деклан О’Двайр) [2006 г., боевик, драма, мелодрама, приключения, DVDRip] [b][u]DVO[/u][/b] (студия "Инис")

Где DVO - обозначение того, что озвучка двухголосаяpb.wtf



05-10-2013 11:53 Робин Гуд Скачать торрент  

А есть продолжение сериала?Я его не смотрел так что не знаюpb.wtf



05-10-2013 12:06 Робин Гуд Скачать торрент  

sidkun
ещё 2 сезона снялиpb.wtf



05-10-2013 13:33 Робин Гуд Скачать торрент  

sidkun писал(а):

А есть продолжение сериала?Я его не смотрел так что не знаю

вот придурок!!!pb.wtf



05-10-2013 15:34 Робин Гуд Скачать торрент  

sidkun писал(а):

А есть продолжение сериала?Я его не смотрел так что не знаю

В ближайшее время выложу остальные два сезона)

Сериал стоит потраченного времени)
Вот рецензии ссылкаpb.wtf



    Дорогой пользователь! Огромная просьба, поблагодарите релизера, оцените раздачу и оставьте свои комментарий, если Вы скачали Робин Гуд через торрент бесплатно! Внесите свою лепту в развитие PiratBit!
    Комментировать посты могут только пользователи прошедшие не сложную регистрацию
    Показать сообщения:    

    Робин Гуд через торрент
    Скачать бесплатно Робин Гуд
    Робин Гуд скачать торрент
    Робин Гуд смотреть онлайн
    Cкачать фильм Робин Гуд бесплатно
    Робин Гуд скачать торрент в хорошем качестве
    Робин Гуд смотреть онлайн бесплатно в хорошем качестве


    Вы не можете начинать темы
    Вы не можете отвечать на сообщения
    Вы не можете редактировать свои сообщения
    Вы не можете удалять свои сообщения
    Вы не можете голосовать в опросах
    Вы не можете прикреплять файлы к сообщениям
    Вы можете скачивать файлы