Ссылка на приватное зеркало нашего сайта всего за 1$. Внимание количество ограничено!!!

2 сезон

iTunes

1 сезон

1

2 сезон

2 сезон

iTunes

1 сезон

RePack

30

Ultimate

ВАЖНО

ИГРА 18+

pack

RePack

MK11
pack

Забери бонус

RePack

jed

!!Акция!!

Alien_Rage

RePack

fifa19

RePack

Assassins Creed: Odyssey

RePack

NEED FOR SPEED™ PAYBACK

4 сезон

9 сезон

Бесстыжие 9 сезон

Все сериалы

все сериалы на PB.wtf

RePack

FAR CRY 5
  

Робин Гуд / Robin Hood (Сезон: 2: Серии: 13 из 13) (Мэттью Эванс, Грэм Харпер, Деклан О’Двайр) [2007 г., боевик, драма, мелодрама, приключения, DVDRip] MVO (Студия «СВ-Дубль» по заказу ГТРК «Культура») pb.wtf

Робин Гуд через торрент pb.wtf

Размер: 4.97 GB | Добавлен: 7 лет 1 мес. назад | Торрент скачан:80 раз
Скачать  

05-10-2013 16:37 Робин Гуд Скачать торрент  

Робин Гуд / Robin Hood
Год выпуска: 2007
Страна: Великобритания
Жанр: Боевик, драма, мелодрама, приключения,
Продолжительность: ~45:00
Перевод: Профессиональный, закадровый, многоголосый |Студия «СВ-Дубль» по заказу ГТРК «Культура»| + Оригинал

Режиссер: Мэттью Эванс Грэм Харпер Деклан О’Двайр.
Продюссер: Фоз Аллан, Грег Бренмен, Доминик Мингелла.
Сценарий: Доминик Мингелла, Фоз Аллан, СиДжей Эшфорд.

Бюджет: £8 000 000


Кинопоиск: 7.696 (1997)

В ролях: Джонас Армстронг, Гордон Кеннеди, Сэм Тротон, Джо Армстронг, Ричард Армитидж, Кит Аллен, Люси Гриффитс, Гарри Ллойд, Анджали Джай, Майкл Элвин.

Описание: Робин возвращается домой из Крестового похода в родовое поместье в Локсли и видит там голодающих и измученных людей. Всему виной новый наместник — Шериф, установивший непосильные налоги и жестокие порядки.

Робин сразу понимает, что урезонить шерифа можно только взяв Влacть в свои руки при помощи лука и стрел. Он полон решимости, даже если для этого придется отказаться от своего титула и земель.

Качество: DVDRip
Формат: AVI
Видео кодек: XviD
Аудио кодек: MP3
Видео: 640x368 (16/9), 25.000 fps, ~1000 Kbps, (0.168 bit/pixel)
Аудио#1: RUS 48.0 KHz, 2 ch, 128 Kbps |Студия «СВ-Дубль»|
Аудио#2: Eng 48.0 KHz, 2 ch, 130 Kbps |Original|

Формат : AVI
Формат/Информация : Audio Video Interleave
Размер файла : 391 MiB
Продолжительность : 42mn 41s
Режим общего битрейта : Variable
Общий поток : 1 279 Kbps
Программа кодирования : VirtualDubMod 1.5.10.2 (build 2542/release)
Библиотека кодирования : VirtualDubMod build 2542/release

Video
Идентификатор : 0
Формат : MPEG-4 Visual
Профиль формата : Advanced Simple@L5
Параметр BVOP формата : 1
Параметр QPel формата : No
Параметр GMC формата : No warppoints
Параметр матрицы формата : Custom
Идентификатор кодека : XVID
Идентификатор кодека/Подсказка : XviD
Продолжительность : 42mn 41s
Битрейт : 1 003 Kbps
Ширина : 640 pixels
Высота : 368 pixels
Соотношение сторон : 1.739
Частота кадров : 25.000 fps
Цветовое пространство : YUV
Субдискретизация насыщенности : 4:2:0
Битовая глубина : 8 bits
Тип развёртки : Progressive
Метод сжатия : Lossy
Бит/(Пиксели*Кадры) : 0.170
Размер потока : 306 MiB (78%)
Библиотека кодирования : XviD 1.2.0.dev47 (UTC 2006-11-01)

Audio #1
Идентификатор : 1
Формат : MPEG Audio
Версия формата : Version 1
Профиль формата : Layer 3
Режим : Joint stereo
Расширение режима : MS Stereo
Идентификатор кодека : 55
Идентификатор кодека/Подсказка : MP3
Продолжительность : 42mn 40s
Вид битрейта : Constant
Битрейт : 128 Kbps
Каналы : 2 channels
Частота : 48.0 KHz
Метод сжатия : Lossy
Размер потока : 39.1 MiB (10%)
Выравнивание : Aligned on interleaves
Продолжительность промежутка : 40 ms (1.00 video frame)
Время предзагрузки промежутка : 504 ms

Audio #2
Идентификатор : 2
Формат : MPEG Audio
Версия формата : Version 1
Профиль формата : Layer 3
Режим : Joint stereo
Расширение режима : MS Stereo
Идентификатор кодека : 55
Идентификатор кодека/Подсказка : MP3
Продолжительность : 42mn 40s
Вид битрейта : Variable
Битрейт : 130 Kbps
Номинальный битрейт : 144 Kbps
Каналы : 2 channels
Частота : 48.0 KHz
Метод сжатия : Lossy
Размер потока : 39.8 MiB (10%)
Выравнивание : Aligned on interleaves
Продолжительность промежутка : 24 ms (0.60 video frame)
Время предзагрузки промежутка : 547 ms
Библиотека кодирования : LAME3.97
Настройки программы : -m j -V 4 -q 2 -lowpass 17.5 --abr 144

pb.wtf



Скачать Робин Гуд через торрент http://pic.kartinco.top/images/4/aicou.jpg Скачать фильм Робин Гуд через торрент бесплантно в хорошем качестве Описание: Робин возвращается домой из Крестового похода в родовое поместье в Локсли и видит там голодающих и измученных людей. Всему виной ... 10 10 2
Info! Золотая раздача, скачанное не засчитывается.
Торрент: Зарегистрирован [2013-10-05 16:37] · скачан: 80 раз
Статус: √ проверено
Размер: 4.97 GB
Как cкачать? Как скачать Робин Гуд через торрент | qTorrent

% Раздел Тема Автор DL S | L
Фильмы 2018 [DVDrip, WEB-DLRip, HDrip] (DUB, MVO) [ 1.46 GB ] Робин Гуд: Начало / Robin Hood [2018 WEB-DLRip] [Локализованный видеоряд] killermax2013 Скачать
4 | 0
Фильмы (HD 720p, 1080p) (48-60 fps) [ 26.48 GB ] Робин Гуд: Начало / Robin Hood [2018 BDRip 1080p 60 fps] sheker187 Скачать
1 | 0
T Фильмы с украинским озвучиванием [ 3.58 GB ] Робин Гуд: Начало / Robin Hood [2018 WEBRip 1080p] [Ukr DUB] killermax2013 Скачать
1 | 0
Ultra HD (UHD: 2K, 4K, 8K) — видео сверхвысокой чёткости [ 85.87 GB ] Робин Гуд: Начало / Robin Hood [2018 UHD Blu-ray 2160p] [Dolby Vision] sheker187 Скачать
1 | 0
Фильмы 2018 [DVDrip, WEB-DLRip, HDrip] (DUB, MVO) [ 2.13 GB ] Робин Гуд: Начало / Robin Hood [2018 BDRip] - Twi7ter Скачать
4 | 0
Фильмы [HD 720p, 1080p] (Хороший звук DUB, MVO) [ 9.5 GB ] Робин Гуд: Начало / Robin Hood [2018 BDRip 1080p] MVO [HDrezka Studio] + bober100 Скачать
2 | 0
Фильмы 2018 [DVDrip, WEB-DLRip, HDrip] (DUB, MVO) [ 1.41 GB ] Робин Гуд: Начало / Robin Hood [2018 BDRip] bober100 Скачать
3 | 0


Последний раз редактировалось: Fantomas94 (2013-10-05 17:18), всего редактировалось 4 раз(а)

28-11-2019 20:33  

Отключить всю рекламу на сайте

05-10-2013 16:41 Робин Гуд Скачать торрент  

C сайта новафилма:

Цитата:

Перевод: Русский профессиональный перевод (Студия «СВ-Дубль» по заказу ГТРК «Культура»)

Тип перевода: закадровый, многоголосый

pb.wtf



05-10-2013 16:45 Робин Гуд Скачать торрент  

Messa-fan писал(а):

C сайта новафилма:

Цитата:

Перевод: Русский профессиональный перевод (Студия «СВ-Дубль» по заказу ГТРК «Культура»)

Тип перевода: закадровый, многоголосый


Черт черт черт, прошу прощения=)
исправлю сию минуту)pb.wtf



05-10-2013 16:49 Робин Гуд Скачать торрент  

Fantomas94
У вас размер скриншотов не соответствует размеру видео

Вы MI с первого сезона скопировали?pb.wtf



05-10-2013 17:00 Робин Гуд Скачать торрент  

Messa-fan писал(а):

Fantomas94
У вас размер скриншотов не соответствует размеру видео

Вы MI с первого сезона скопировали?

Через VirtualDubMod сохранял MI 1-го сезона в файл, сделал тоже самое со вторым и случайно скопировал с 1-го.
Был невнимателен.pb.wtf



05-10-2013 17:02 Робин Гуд Скачать торрент  

Fantomas94
Предоставьте полный MI первой серии второго сезона полностью (включая путь к файлу)pb.wtf



05-10-2013 18:43 Робин Гуд Скачать торрент  

смотрел сериал полностью не каждый выдержит там одно и тоже так растянулиpb.wtf



05-10-2013 19:19 Робин Гуд Скачать торрент  

офигенский сериал. Советую такой шедевр глянуть)pb.wtf



06-10-2013 06:44 Робин Гуд Скачать торрент  

Xeonix, поддерживаю)pb.wtf



12-10-2013 03:07 Робин Гуд Скачать торрент  

не знаю как и почему, но я смотрю этот сериал. (может быть только потому, что он про гуда)pb.wtf



    Дорогой пользователь! Огромная просьба, поблагодарите релизера, оцените раздачу и оставьте свои комментарий, если Вы скачали Робин Гуд через торрент бесплатно! Внесите свою лепту в развитие PiratBit!
    Комментировать посты могут только пользователи прошедшие не сложную регистрацию
    Показать сообщения:    

    Робин Гуд через торрент
    Скачать бесплатно Робин Гуд
    Робин Гуд скачать торрент
    Робин Гуд смотреть онлайн
    Cкачать фильм Робин Гуд бесплатно
    Робин Гуд скачать торрент в хорошем качестве
    Робин Гуд смотреть онлайн бесплатно в хорошем качестве


    Вы не можете начинать темы
    Вы не можете отвечать на сообщения
    Вы не можете редактировать свои сообщения
    Вы не можете удалять свои сообщения
    Вы не можете голосовать в опросах
    Вы не можете прикреплять файлы к сообщениям
    Вы можете скачивать файлы