Лицензия

MVO

1

1 сезон

Лицензия

Лицензия

13

MVO

1 сезон

Deluxe Edition

pack

Рекомендуем

30

Repack

ВАЖНО

ВАЖНО

Ghostwire

RePack

jed

RePack

fifa19

RePack

RDR2

RePack

NEED FOR SPEED™ PAYBACK

RePack

Кинопоиск HD

 Острые козырьки 6 сезон

6 сезон

FAR CRY 6

RePack

Лицензия

MVO

1

1 сезон

1 сезон

Лицензия

  

Тройной форсаж: Токийский Дрифт / The Fast and the Furious: Tokyo Drift (Джастин Лин) [2006 г., боевик, триллер, криминал, BDRip 1080p, Дубляж + Оригинал]

Тройной форсаж: Токийский Дрифт через торрент pb.wtf

Размер: 7.75 GB | Добавлен: 8 лет 11 мес. назад | Торрент скачан:44 раза
Смотреть онлайн Тройной форсаж: Токийский Дрифт | Скачать   

05-10-2013 20:03 Тройной форсаж: Токийский Дрифт Скачать торрент  

Тройной форсаж: Токийский Дрифт / The Fast and the Furious: Tokyo Drift
Год выпуска: 2006
Страна: США
Жанр: боевик, триллер, криминал,
Продолжительность: 01:44:14
Перевод: Дубляж + Оригинал
Субтитры: Русские английские

Режиссер: Джастин Лин

В ролях: Лукас Блэк, Брайан Ти, Санг Кенг, Брэндон Брендел, Дэниэл Буко, Дэвид Томас, Эмбер Стивенс, Ашика Гонья, Кристиан Салазар, Вин Дизель,

Описание: Шон Босуэлл — одинокий парень, который хочет казаться профи уличных гонок. Он бесшабашно гоняется по улицам города, пытаясь убежать от жизненных невзгод и наживая себе врагов среди местных властей. Когда Шону грозит тюрьма, его от греха подальше отсылают к отцу — профессиональному военному, который служит на военной базе в Японии.
В незнакомой стране, живущей по своим законам, Шон чувствует себя еще большим изгоем. Однако вскоре его американский приятель Твинки знакомит его с миром подпольного дрифт-рейсинга. Раньше Шон просто тупо гонялся по улицам, а здесь перед ним открылся целый мир своеобразного искусства из металла и резины, дороги которого оказались невообразимо круты на поворотах…

Качество: BDRip 1080p
Формат: MKV
Видео кодек: H.264
Аудио кодек: AC3
Видео: (1920x816), 9571 Кбит/с, 23.976 кадра/сек
Аудио#1: AC-3, 6 ch, 640 kbps (Rus) 48.0 KHz Дубляж
Аудио#2: AC-3, 6 ch, 640 kbps (Eng) 48.0 KHz Оригинал
скриншот   скриншот   скриншот  

Общее
Уникальный идентификатор : 233198864891525064940719969176740401426 (0xAF7077BA7A3A715F9353E27BC5079112)
Полное имя : Тройной форсаж. Токийский Дрифт.2006.BDRip.1080p.Rus.Eng.mkv
Формат : Matroska
Версия формата : Version 2
Размер файла : 7,75 Гбайт
Продолжительность : 1 ч. 44 м.
Общий поток : 10,6 Мбит/сек
Название фильма : Тройной форсаж: Токийский Дрифт.2006
Дата кодирования : UTC 2012-12-15 11:53:06
Программа кодирования : mkvmerge v5.8.0 ('No Sleep / Pillow') built on Sep 2 2012 15:37:04
Библиотека кодирования : libebml v1.2.3 + libmatroska v1.3.0

Видео
Идентификатор : 1
Формат : AVC
Формат/Информация : Advanced Video Codec
Профиль формата : [email protected]
Параметр CABAC формата : Да
Параметр ReFrames формата : 5 кадров
Идентификатор кодека : V_MPEG4/ISO/AVC
Продолжительность : 1 ч. 44 м.
Битрейт : 9571 Кбит/сек
Ширина : 1920 пикселей
Высота : 816 пикселей
Соотношение сторон : 2,35:1
Режим частоты кадров : Постоянный
Частота кадров : 23,976 кадра/сек
Цветовое пространство : YUV
Субдискретизация насыщенности : 4:2:0
Битовая глубина : 8 бит
Тип развёртки : Прогрессивная
Бит/(Пиксели*Кадры) : 0.255
Размер потока : 6,81 Гбайт (88%)
Заголовок : Rip by Boriy
Библиотека кодирования : x264 core 129 r2230 1cffe9f
Настройки программы : cabac=1 / ref=5 / deblock=1:0:0 / analyse=0x3:0x113 / me=umh / subme=10 / psy=1 / psy_rd=1.00:0.10 / mixed_ref=1 / me_range=32 / chroma_me=1 / trellis=2 / 8x8dct=1 / cqm=0 / deadzone=21,11 / fast_pskip=0 / chroma_qp_offset=-3 / threads=12 / lookahead_threads=2 / sliced_threads=0 / nr=0 / decimate=0 / interlaced=0 / bluray_compat=0 / constrained_intra=0 / bframes=5 / b_pyramid=2 / b_adapt=2 / b_bias=0 / direct=3 / weightb=1 / open_gop=0 / weightp=2 / keyint=240 / keyint_min=23 / scenecut=40 / intra_refresh=0 / rc=2pass / mbtree=0 / bitrate=9571 / ratetol=1.0 / qcomp=0.60 / qpmin=0 / qpmax=69 / qpstep=4 / cplxblur=20.0 / qblur=0.5 / ip_ratio=1.40 / pb_ratio=1.30 / aq=1:0.80
Язык : English
Default : Да
Forced : Нет

Аудио #1
Идентификатор : 2
Формат : AC-3
Формат/Информация : Audio Coding 3
Расширение режима : CM (complete main)
Параметр Endianness формата : Big
Идентификатор кодека : A_AC3
Продолжительность : 1 ч. 44 м.
Вид битрейта : Постоянный
Битрейт : 448 Кбит/сек
Каналы : 6 каналов
Расположение каналов : Front: L C R, Side: L R, LFE
Частота : 48,0 КГц
Битовая глубина : 16 бит
Метод сжатия : С потерями
Размер потока : 334 Мбайт (4%)
Заголовок : Дубляж
Язык : Russian
Default : Да
Forced : Нет

Аудио #2
Идентификатор : 3
Формат : AC-3
Формат/Информация : Audio Coding 3
Расширение режима : CM (complete main)
Параметр Endianness формата : Big
Идентификатор кодека : A_AC3
Продолжительность : 1 ч. 44 м.
Вид битрейта : Постоянный
Битрейт : 640 Кбит/сек
Каналы : 6 каналов
Расположение каналов : Front: L C R, Side: L R, LFE
Частота : 48,0 КГц
Битовая глубина : 16 бит
Метод сжатия : С потерями
Размер потока : 477 Мбайт (6%)
Заголовок : Оригинал
Язык : English
Default : Нет
Forced : Нет

Текст #1
Идентификатор : 4
Формат : UTF-8
Идентификатор кодека : S_TEXT/UTF8
Идентификатор кодека/Информация : UTF-8 Plain Text
Заголовок : Forced
Язык : Russian
Default : Да
Forced : Да

Текст #2
Идентификатор : 5
Формат : UTF-8
Идентификатор кодека : S_TEXT/UTF8
Идентификатор кодека/Информация : UTF-8 Plain Text
Заголовок : Full
Язык : Russian
Default : Нет
Forced : Нет

Текст #3
Идентификатор : 6
Формат : UTF-8
Идентификатор кодека : S_TEXT/UTF8
Идентификатор кодека/Информация : UTF-8 Plain Text
Заголовок : Full
Язык : English
Default : Нет
Forced : Нет

Меню
00:00:00.000 : :Chapter 1
00:03:04.434 : :Chapter 2
00:09:43.499 : :Chapter 3
00:12:10.688 : :Chapter 4
00:16:15.391 : :Chapter 5
00:20:16.840 : :Chapter 6
00:26:36.469 : :Chapter 7
00:32:56.849 : :Chapter 8
00:41:14.305 : :Chapter 9
00:46:34.833 : :Chapter 10
00:52:55.255 : :Chapter 11
00:58:20.121 : :Chapter 12
01:01:46.244 : :Chapter 13
01:05:50.488 : :Chapter 14
01:08:56.090 : :Chapter 15
01:16:14.611 : :Chapter 16
01:20:31.409 : :Chapter 17
01:26:53.249 : :Chapter 18
01:34:59.944 : :Chapter 19
01:37:33.848 : :Chapter 20
01:44:13.872 : :




Скачать Тройной форсаж: Токийский Дрифт через торрент https://pic1.kartinco.top/images/41/hcq1h.jpg Скачать, смотреть онлайн Тройной форсаж: Токийский Дрифт бесплантно в хорошем качестве Описание: Шон Босуэлл — одинокий парень, который хочет казаться профи уличных гонок. Он бесшабашно гоняется по улицам города, пытаясь ... 9.9 10 20
Info! Золотая раздача, скачанное не засчитывается.
Торрент: Зарегистрирован [2013-10-05 20:03] · скачан: 44 раз
Статус: √ проверено
Размер: 7.75 GB
Как cкачать? Как скачать Тройной форсаж: Токийский Дрифт через торрент | UTorrent

% Раздел Тема Автор DL S | L
Ultra HD (UHD: 2K, 4K, 8K) [ 54.43 GB ] Тройной форсаж: Токийский Дрифт / The Fast and the Furious: Tokyo Drift | Лицензия | Blu-ray 2160 bober100 Скачать
1 | 0
Ultra HD (UHD: 2K, 4K, 8K) [ 16.9 GB ] Тройной форсаж: Токийский дрифт / The Fast and the Furious: Tokyo Drift | DUB + 2xAVO | 2160p sheker187 Скачать
1 | 0
Ultra HD (UHD: 2K, 4K, 8K) [ 57.82 GB ] Тройной форсаж: Токийский дрифт / The Fast and the Furious: Tokyo Drift | DUB + 2xAVO | 2160p sheker187 Скачать
1 | 0
Фильмы [HD 720p, 1080p] (Хороший звук DUB, MVO) [ 4.33 GB ] Тройной форсаж: Токийский Дрифт / The Fast and the Furious: Tokyo Drift | Дубляж | 1080p, HEVC (10Bit Мичман37 Скачать
1 | 0
Фильмы (HD 720p, 1080p) (48-60 fps) [ 4.72 GB ] Тройной форсаж: Токийский дрифт / The Fast and the Furious: Tokyo Drift | DUB | 720p / 60 fps еnvy Скачать
3 | 0
Фильмы 2006-2008 [ 1.46 GB ] Тройной форсаж: Токийский Дрифт / Fast and the Furious: Tokyo Drift, The | | DVDRip Den41K Скачать
1 | 0
Фильмы 2006-2008 [ 4.65 GB ] Тройной Форсаж: Токийский Дрифт / The Fast and the Furious: Tokyo Drift | | 720p Bober_tf2 Скачать
1 | 0

28-11-2019 20:33  

Отключить вcю реклaмy на сайте

31-03-2015 16:15 Тройной форсаж: Токийский Дрифт Скачать торрент  

ну и где скорость??



    Дорогой пользователь! Огромная просьба, поблагодарите релизера, оцените раздачу и оставьте свои комментарий, если Вы скачали Тройной форсаж: Токийский Дрифт через торрент бесплатно!!
    Комментировать посты могут только пользователи прошедшие не сложную регистрацию
    Показать сообщения:    


    Тройной форсаж: Токийский Дрифт через торрент
    Скачать бесплатно Тройной форсаж: Токийский Дрифт
    Тройной форсаж: Токийский Дрифт скачать торрент
    Тройной форсаж: Токийский Дрифт смотреть онлайн
    Cкачать фильм Тройной форсаж: Токийский Дрифт бесплатно
    Тройной форсаж: Токийский Дрифт скачать торрент в хорошем качестве
    Тройной форсаж: Токийский Дрифт смотреть онлайн бесплатно в хорошем качестве
    Вы не можете начинать темы
    Вы не можете отвечать на сообщения
    Вы не можете редактировать свои сообщения
    Вы не можете удалять свои сообщения
    Вы не можете голосовать в опросах
    Вы не можете прикреплять файлы к сообщениям
    Вы можете скачивать файлы