1 сезон

1 сезон

iTunes

1

КиноПоиск HD

Кинопоиск HD

iTunes

13

1 сезон

RePack

30

Новинка

ВАЖНО

ИГРА 18+

pack

RePack

MK11
pack

Легкие деньги

RePack

jed

RePack

fifa19

RePack

RDR2

RePack

NEED FOR SPEED™ PAYBACK

4 сезон

9 сезон

Бесстыжие 9 сезон

Все сериалы

все сериалы на PB.wtf

RePack

FAR CRY 5
  
Magnet ссылка

Джейсон Х / Jason X (Джеймс Исаак / James Isaac) [ 2001 , США , ужасы, фантастика, триллер , DVDRip, MVO ] pb.wtf

Джейсон Х через торрент pb.wtf

Размер: 1.37 GB | Добавлен: 7 лет 6 мес. назад | Торрент скачан:60 раз
Скачать  

06-10-2013 05:17 Джейсон Х Скачать торрент  

Джейсон Х / Jason XГод выпуска:2001
Страна: США
Жанр: ужасы, фантастика, триллер

Продолжительность: 01:27:47
Перевод: Профессиональный (многоголосый, закадровый)

Субтитры: Нет
Режиссер: Джеймс Исаак / James Isaac

В ролях: Кэйн Ходдер (Jason Voorhees / Uber-Jason), Джефф Геддис (Johnson, (Soldier #1)), Лекса Дойг (Rowan), Дэвид Кроненберг (Dr. Wimmer), Маркус Парило (Sgt. Marcus), Джонатан Поттс (Professor Lowe), Лиза Райдер (Kay-Em 14), Дов Тифенбах (Azrael), Чак Кэмпбелл (Tsunaron), Мелисса Эд (Janessa), Бойд Бэнкс (Fat Lou), Барна Мориц (Kicker)
Описание:
Группа студентов-археологов из новой колонии «Земля-2» прилетает на Старую Землю, давно уже ставшую токсичной пустыней, чтобы исследовать древние останки прошлых цивилизаций. Студенты находят два замороженных криогеном тела, хранящихся около 400 лет в старом исследовательском центре.
Обрадованная своей находкой команда забирает тела с собой. Одно их тел принадлежит серийному убийце Джейсону Вурхису. Студенты не подозревают, с какой смертельной опасностью им предстоит столкнуться, хотя дальнейшее развитие событий не трудно предугадать. Джейсон самостоятельно реанимируется прямо на корабле и, быстро расправившись с небольшим отрядом спецназа, начинает охоту на студентов...

Рейтинг
kinopoisk.ru: 4.736 (3149)
imdb.com: 4.30 (27 243)
MPAA: R - Лицам до 17 лет обязательно присутствие взрослого
Качество: DVDRip
Формат: AVI
Видео кодек: XviD
Аудио кодек: AC3
Видео: XviD, 688x368 (1.870), 1768 kbps, 25 fps, 0,279 bpp
Аудио: AC3 / 5.1 / 48 kHz / 448 kbps / 16 bit© Оформление by ФёдорOFF
General
Complete name : D:раздачиDzheison.X.2001.XviD.DVDRip.avi
Format : AVI
Format/Info : Audio Video Interleave
File size : 1.37 GiB
Duration : 1h 27mn
Overall bit rate : 2 226 Kbps
Writing application : VirtualDubModRus 1.5.10.2 (build 2540/release)
Writing library : VirtualDubMod build 2540/release

Video
ID : 0
Format : MPEG-4 Visual
Format profile : Advanced Simple@L5
Format settings, BVOP : 2
Format settings, QPel : No
Format settings, GMC : No warppoints
Format settings, Matrix : Default (H.263)
Muxing mode : Packed bitstream
Codec ID : XVID
Codec ID/Hint : XviD
Duration : 1h 27mn
Bit rate : 1 769 Kbps
Width : 688 pixels
Height : 368 pixels
Display aspect ratio : 1.870
Frame rate : 25.000 fps
Color space : YUV
Chroma subsampling : 4:2:0
Bit depth : 8 bits
Scan type : Progressive
Compression mode : Lossy
Bits/(Pixel*Frame) : 0.279
Stream size : 1.08 GiB (79%)
Writing library : XviD 1.2.0.dev47 (UTC 2006-11-01)

Audio
ID : 1
Format : AC-3
Format/Info : Audio Coding 3
Mode extension : CM (complete main)
Codec ID : 2000
Duration : 1h 27mn
Bit rate mode : Constant
Bit rate : 448 Kbps
Channel(s) : 6 channels
Channel positions : Front: L C R, Side: L R, LFE
Sampling rate : 48.0 KHz
Bit depth : 16 bits
Compression mode : Lossy
Stream size : 281 MiB (20%)
Alignment : Split accross interleaves
Interleave, duration : 40 ms (1.00 video frame)
Interleave, preload duration : 500 ms
pb.wtf



Скачать Джейсон Х через торрент http://i6.imageban.ru/out/2013/10/06/56c500129f8bde8603e863826c16ba15.jpg Скачать фильм Джейсон Х через торрент бесплантно в хорошем качестве Описание: Группа студентов-археологов из новой колонии «Земля-2» прилетает на Старую Землю, давно уже ставшую токсичной пустыней, чтобы ... 9.4 10 11
Info! Золотая раздача, скачанное не засчитывается.
Торрент: Зарегистрирован [2013-10-06 05:17] · скачан: 60 раз
Статус: √ проверено
Размер: 1.37 GB
Как cкачать? Как скачать Джейсон Х через торрент | UTorrent

% Раздел Тема Автор DL S | L
Фильмы [HD 720p, 1080p] (Хороший звук DUB, MVO) [ 10.57 GB ] Джейсон Х / Jason X [2001 BDRip 1080p] 2xMVO 4xDVO AVO VO Леонид Ильич Скачать
1 | 0
Фильмы 2001-2005 [ 701 MB ] Джейсон Х / Jason X [2001 DVDRip ] F.U. Скачать
1 | 0
Фильмы 2001-2005 [ 1.37 GB ] Джейсон Х / Jason X [2001 DVDRip] war22200 Скачать
1 | 0

28-11-2019 20:33  

Отключить всю рекламу на сайте

    Дорогой пользователь! Огромная просьба, поблагодарите релизера, оцените раздачу и оставьте свои комментарий, если Вы скачали Джейсон Х через торрент бесплатно! Внесите свою лепту в развитие PiratBit!
    Комментировать посты могут только пользователи прошедшие не сложную регистрацию
    Показать сообщения:    

    Джейсон Х через торрент
    Скачать бесплатно Джейсон Х
    Джейсон Х скачать торрент
    Джейсон Х смотреть онлайн
    Cкачать фильм Джейсон Х бесплатно
    Джейсон Х скачать торрент в хорошем качестве
    Джейсон Х смотреть онлайн бесплатно в хорошем качестве


    Вы не можете начинать темы
    Вы не можете отвечать на сообщения
    Вы не можете редактировать свои сообщения
    Вы не можете удалять свои сообщения
    Вы не можете голосовать в опросах
    Вы не можете прикреплять файлы к сообщениям
    Вы можете скачивать файлы