Ссылка на приватное зеркало нашего сайта всего за 1$. Внимание количество ограничено!!!

2 сезон

iTunes

1 сезон

1

iTunes

iTunes

iTunes

1 сезон

RePack

30

ИГРА 18+

pack

ВАЖНО

!!Акция!!

Alien_RageХит недели

RePack

MK11
pack

Забери бонус

RePack

jed

!!Акция!!

Alien_Rage

RePack

fifa19

RePack

Assassins Creed: Odyssey

RePack

NEED FOR SPEED™ PAYBACK

4 сезон

9 сезон

Бесстыжие 9 сезон

Все сериалы

все сериалы на PB.wtf

RePack

FAR CRY 5
  

Дашаватар / Dashavatar [2008 г., фэнтези, семейный, DVDRip,Любительский одноголосый] pb.wtf

Дашаватар через торрент pb.wtf

Размер: 1.5 GB | Добавлен: 7 лет назад | Торрент скачан:30 раз
Скачать  

06-10-2013 10:04 Дашаватар Скачать торрент  

Дашаватар / Dashavatar
Год выпуска: 2008
Страна: Индия
Жанр: фэнтези, семейный
Продолжительность: 01:59:05
Перевод: Любительский одноголосый

В ролях: Персонажи индийской мифологии.

Описание: Защищая богов и людей, Господь Вишну нисходит в каждую эпоху в десяти воплощениях – Маться, Курма, Вараха, Нрисимха, Паршурам, Вамана, Рама, Кришна, Будда и Калки. Превосходно озвученный и музыкальный мультфильм повествует о подвигах разных аватар Господа Вишну, наполненных действиями, драматизмом и приключениями. Преступники похищают двух детей, брата и сестру, и требуют за них большой выкуп. Детям удается сбежать, и, спасаясь от преследования, они оказываются запертыми в старинном храме Кришны. В отчаянии девочка обращается к Божеству за помощью. Чтобы спасти детей и развеять сомнения брата девочки, служитель храма дает детям особую мантру..

Качество: DVDRip
Формат: MPEG
Видео кодек: XviD
Аудио кодек: MP3
Видео: MPEG4, XviD, 720х480, 25,000 Kbps, 1564 Kbps
Аудио#1: 48 kHz, MP3 , Layer 3, 2 ch, 224 Kbps
[/url] [/url] [/url]

Полное имя : D:раздачиDashavatar.avi
Формат : AVI
Формат/Информация : Audio Video Interleave
Размер файла : 1,50 Гбайт
Продолжительность : 1 ч. 59 м.
Общий поток : 1797 Кбит/сек
Программа кодирования : VirtualDubMod 1.5.10.2 (build 2540/release)
Библиотека кодирования : VirtualDubMod build 2540/release

Видео
Идентификатор : 0
Формат : MPEG-4 Visual
Профиль формата : Advanced Simple@L5
Параметр BVOP формата : 2
Параметр QPel формата : Нет
Параметр GMC формата : Без точки перехода
Параметр матрицы формата : Default (H.263)
Идентификатор кодека : XVID
Идентификатор кодека/Подсказка : XviD
Продолжительность : 1 ч. 59 м.
Битрейт : 1564 Кбит/сек
Ширина : 720 пикселей
Высота : 480 пикселей
Соотношение сторон : 2,40:1
Соотношение сторон в оригинале : 3:2
Частота кадров : 25,000 кадров/сек
Стандарт вещания : NTSC
Цветовое пространство : YUV
Субдискретизация насыщенности : 4:2:0
Битовая глубина : 8 бит
Тип развёртки : Прогрессивная
Метод сжатия : С потерями
Бит/(Пиксели*Кадры) : 0.181
Размер потока : 1,30 Гбайт (87%)
Библиотека кодирования : XviD 1.2.1 (UTC 2008-12-04)

Аудио
Идентификатор : 1
Формат : MPEG Audio
Версия формата : Version 1
Профиль формата : Layer 3
Режим : Joint stereo
Расширение режима : MS Stereo
Идентификатор кодека : 55
Идентификатор кодека/Подсказка : MP3
Продолжительность : 1 ч. 59 м.
Вид битрейта : Постоянный
Битрейт : 224 Кбит/сек
Каналы : 2 канала
Частота : 48,0 КГц
Метод сжатия : С потерями
Размер потока : 191 Мбайт (12%)
Выравнивание : Разделение по промежуткам
Продолжительность промежутка : 40 мс. (1,00 видеокадр)
Время предзагрузки промежутка : 500 мс.
Библиотека кодирования : LAME3.98

pb.wtf



Скачать Дашаватар через торрент http://3.firepic.org/3/images/2013-10/06/zv9sme2wi1qg.jpg Скачать фильм Дашаватар через торрент бесплантно в хорошем качестве Описание: Защищая богов и людей, Господь Вишну нисходит в каждую эпоху в десяти воплощениях – Маться, Курма, Вараха, Нрисимха, Паршурам, ... 8.2 10 5
Info! Золотая раздача, скачанное не засчитывается.
Торрент: Зарегистрирован [2013-10-06 10:04] · скачан: 30 раз
Статус: √ проверено
Размер: 1.5 GB
Как cкачать? Как скачать Дашаватар через торрент | qTorrent



Последний раз редактировалось: ФёдорOFF (2013-10-07 02:30), всего редактировалось 1 раз

28-11-2019 20:33  

Отключить всю рекламу на сайте

06-10-2013 16:51 Дашаватар Скачать торрент  

Перевод: Профессиональный одноголосый - это чей перевод?pb.wtf



07-10-2013 02:29 Дашаватар Скачать торрент  

lyokaa писал(а):

Перевод: Профессиональный одноголосый - это чей перевод?

извиняюсь...Любительскийpb.wtf



    Дорогой пользователь! Огромная просьба, поблагодарите релизера, оцените раздачу и оставьте свои комментарий, если Вы скачали Дашаватар через торрент бесплатно! Внесите свою лепту в развитие PiratBit!
    Комментировать посты могут только пользователи прошедшие не сложную регистрацию
    Показать сообщения:    

    Дашаватар через торрент
    Скачать бесплатно Дашаватар
    Дашаватар скачать торрент
    Дашаватар смотреть онлайн
    Cкачать фильм Дашаватар бесплатно
    Дашаватар скачать торрент в хорошем качестве
    Дашаватар смотреть онлайн бесплатно в хорошем качестве


    Вы не можете начинать темы
    Вы не можете отвечать на сообщения
    Вы не можете редактировать свои сообщения
    Вы не можете удалять свои сообщения
    Вы не можете голосовать в опросах
    Вы не можете прикреплять файлы к сообщениям
    Вы можете скачивать файлы