Всегда рабочее зеркало без VPN и Proxy просто перед .vidak.icu напиши любое слово или цифру, Пример http://h70u.vidak.icu

MVO

2 сезон

2 сезон

1

1 сезон

iTunes

2 сезон

13

1 сезон

Deluxe

pack

Рекомендуем

Пиратка

30

ВАЖНО

RePack

MK11

RePack

jed

RePack

fifa19

RePack

RDR2

RePack

NEED FOR SPEED™ PAYBACK

Кинопоиск HD

6 сезон

 Острые козырьки 6 сезон

Все сериалы

все сериалы на PB.wtf

RePack

FAR CRY 5

Anonymous, нам критически не хватает 5601 руб. на оплату серверов и переферии за Апрель, помоги нам пожалуйста, вся надежда только на тебя. В благодарность мы отключим тебе всю рекламу на сайте!

×
  
Magnet ссылка

Форсаж 5 / Fast Five (Джастин Лин) [2011 г., боевик, триллер, драма, криминал, BDRip 1080p, Дубляж + Оригинал] pb.wtf

Форсаж 5 через торрент pb.wtf

Размер: 7.76 GB | Добавлен: 8 лет 7 мес. назад | Торрент скачан:3 раза
Смотреть онлайн Форсаж 5 | Скачать    Ребята, помогите собрать деньги на оплату серверов!!!

06-10-2013 13:35 Форсаж 5 Скачать торрент  

Форсаж 5 / Fast Five
Год выпуска: 2011
Страна: США
Жанр: боевик, триллер, драма, криминал,
Продолжительность: 02:10:21
Перевод: Дубляж + Оригинал
Субтитры: Русские английские

Режиссер: Джастин Лин

В ролях: Вин Дизель, Пол Уокер, Джордана Брюстер, Лудакрис, Тайриз Гибсон, Мэтт Шульце, Санг Кенг, Галь Гадот, Тего Калдерон, Дон Омар, Ева Мендес, Мишель Родригес, Дуэйн Джонсон,

Описание: Бывший полицейский Брайан О`Коннер вместе с бывалым лихачом Домиником Торетто совсем немного увлеклись жизнью вне закона. После того, как Брайан и Миа Торетто освободили Доминика, они не рискуют долго задерживаться на одном месте, так как являются желанной целью порядком недовольных копов.

Качество: BDRip 1080p
Формат: MKV
Видео кодек: H.264
Аудио кодек: AC3
Видео: AVC, (1920x816),7244 Кбит/с, 23.976 кадра/сек
Аудио#1: AC-3, 6 ch, 640 kbps (Rus) 48.0 KHz Дубляж
Аудио#2: AC-3, 6 ch, 640 kbps (Eng) 48.0 KHz Оригинал
скриншот   скриншот   скриншот  

Общее
Уникальный идентификатор : 195770463693174150773302563405337785341 (0x9348051345C60F00AB89208A81E4F3FD)
Полное имя : Форсаж 5.2011.BDRip.1080p.Rus.Eng.mkv
Формат : Matroska
Версия формата : Version 2
Размер файла : 7,76 Гбайт
Продолжительность : 2 ч. 10 м.
Общий поток : 8526 Кбит/сек
Название фильма : Форсаж 5.2011
Дата кодирования : UTC 2012-12-15 13:08:25
Программа кодирования : mkvmerge v5.8.0 ('No Sleep / Pillow') built on Sep 2 2012 15:37:04
Библиотека кодирования : libebml v1.2.3 + libmatroska v1.3.0

Видео
Идентификатор : 1
Формат : AVC
Формат/Информация : Advanced Video Codec
Профиль формата : High@L4.1
Параметр CABAC формата : Да
Параметр ReFrames формата : 5 кадров
Идентификатор кодека : V_MPEG4/ISO/AVC
Продолжительность : 2 ч. 10 м.
Битрейт : 7244 Кбит/сек
Ширина : 1920 пикселей
Высота : 816 пикселей
Соотношение сторон : 2,35:1
Режим частоты кадров : Постоянный
Частота кадров : 23,976 кадра/сек
Цветовое пространство : YUV
Субдискретизация насыщенности : 4:2:0
Битовая глубина : 8 бит
Тип развёртки : Прогрессивная
Бит/(Пиксели*Кадры) : 0.193
Размер потока : 6,44 Гбайт (83%)
Заголовок : Rip by Boriy
Библиотека кодирования : x264 core 129 r2230 1cffe9f
Настройки программы : cabac=1 / ref=5 / deblock=1:0:0 / analyse=0x3:0x113 / me=umh / subme=10 / psy=1 / psy_rd=1.00:0.10 / mixed_ref=1 / me_range=32 / chroma_me=1 / trellis=2 / 8x8dct=1 / cqm=0 / deadzone=21,11 / fast_pskip=0 / chroma_qp_offset=-3 / threads=12 / lookahead_threads=2 / sliced_threads=0 / nr=0 / decimate=0 / interlaced=0 / bluray_compat=0 / constrained_intra=0 / bframes=5 / b_pyramid=2 / b_adapt=2 / b_bias=0 / direct=3 / weightb=1 / open_gop=0 / weightp=2 / keyint=240 / keyint_min=23 / scenecut=40 / intra_refresh=0 / rc=2pass / mbtree=0 / bitrate=7244 / ratetol=1.0 / qcomp=0.60 / qpmin=0 / qpmax=69 / qpstep=4 / cplxblur=20.0 / qblur=0.5 / ip_ratio=1.40 / pb_ratio=1.30 / aq=1:0.80
Язык : English
Default : Да
Forced : Нет

Аудио #1
Идентификатор : 2
Формат : AC-3
Формат/Информация : Audio Coding 3
Расширение режима : CM (complete main)
Параметр Endianness формата : Big
Идентификатор кодека : A_AC3
Продолжительность : 2 ч. 10 м.
Вид битрейта : Постоянный
Битрейт : 640 Кбит/сек
Каналы : 6 каналов
Расположение каналов : Front: L C R, Side: L R, LFE
Частота : 48,0 КГц
Битовая глубина : 16 бит
Метод сжатия : С потерями
Размер потока : 597 Мбайт (8%)
Заголовок : Дубляж
Язык : Russian
Default : Да
Forced : Нет

Аудио #2
Идентификатор : 3
Формат : AC-3
Формат/Информация : Audio Coding 3
Расширение режима : CM (complete main)
Параметр Endianness формата : Big
Идентификатор кодека : A_AC3
Продолжительность : 2 ч. 10 м.
Вид битрейта : Постоянный
Битрейт : 640 Кбит/сек
Каналы : 6 каналов
Расположение каналов : Front: L C R, Side: L R, LFE
Частота : 48,0 КГц
Битовая глубина : 16 бит
Метод сжатия : С потерями
Размер потока : 597 Мбайт (8%)
Заголовок : Оригинал
Язык : English
Default : Нет
Forced : Нет

Текст #1
Идентификатор : 4
Формат : UTF-8
Идентификатор кодека : S_TEXT/UTF8
Идентификатор кодека/Информация : UTF-8 Plain Text
Заголовок : Forced
Язык : Russian
Default : Да
Forced : Да

Текст #2
Идентификатор : 5
Формат : UTF-8
Идентификатор кодека : S_TEXT/UTF8
Идентификатор кодека/Информация : UTF-8 Plain Text
Заголовок : Full
Язык : Russian
Default : Нет
Forced : Нет

Текст #3
Идентификатор : 6
Формат : UTF-8
Идентификатор кодека : S_TEXT/UTF8
Идентификатор кодека/Информация : UTF-8 Plain Text
Заголовок : Full
Язык : English
Default : Нет
Forced : Нет

Меню
00:00:00.000 : :Chapter 1
00:07:45.715 : :Chapter 2
00:17:29.465 : :Chapter 3
00:23:01.838 : :Chapter 4
00:28:21.574 : :Chapter 5
00:34:55.635 : :Chapter 6
00:40:46.318 : :Chapter 7
00:48:41.585 : :Chapter 8
00:55:20.317 : :Chapter 9
01:03:09.952 : :Chapter 10
01:10:44.657 : :Chapter 11
01:18:25.867 : :Chapter 12
01:22:36.201 : :Chapter 13
01:27:58.731 : :Chapter 14
01:31:53.424 : :Chapter 15
01:39:13.322 : :Chapter 16
01:47:00.747 : :Chapter 17
01:54:50.133 : :Chapter 18
01:59:15.231 : :Chapter 19
02:03:24.397 : :Chapter 20
02:10:21.021 : :Chapter 21

pb.wtf



Скачать Форсаж 5 через торрент https://pic1.kartinco.top/images/41/yxlm9.jpg Скачать, смотреть онлайн Форсаж 5 бесплантно в хорошем качестве Описание: Бывший полицейский Брайан О`Коннер вместе с бывалым лихачом Домиником Торетто совсем немного увлеклись жизнью вне закона. После ... 9.4 10 15
Info! Золотая раздача, скачанное не засчитывается.
Торрент: Зарегистрирован [2013-10-06 13:35] · скачан: 3 раз
Статус: √ проверено
Размер: 7.76 GB
Как cкачать? Как скачать Форсаж 5 через торрент | UTorrent

% Раздел Тема Автор DL S | L
Ultra HD (UHD: 2K, 4K, 8K) — видео сверхвысокой чёткости [ 56.53 GB ] Форсаж 5 / Fast Five [2011 UHD Blu-Ray EUR 2160p] DUB [] bober100 Скачать
1 | 0
Ultra HD (UHD: 2K, 4K, 8K) — видео сверхвысокой чёткости [ 52.45 GB ] Форсаж 5 / Fast Five [2011 UHD BDRemux 2160p] [Театральная версия] DUB [ BD EUR] +AVO [А. Киреев] bober100 Скачать
1 | 0
Ultra HD (UHD: 2K, 4K, 8K) — видео сверхвысокой чёткости [ 56.14 GB ] Форсаж 5 / Fast Five [2011 UHD BDRemux 2160p] DUB [] + 2xAVO [Расширенная версия] sheker187 Скачать
1 | 0
Фильмы [HD 720p, 1080p] (Хороший звук DUB, MVO) [ 5.44 GB ] Форсаж 5 / Fast Five [2011 BDRip 1080p HEVC ] Мичман37 Скачать
1 | 0
Фильмы [HD 720p, 1080p] (Хороший звук DUB, MVO) [ 4.85 GB ] Форсаж 5 / Fast Five [2011 BDRip 720p от Leonardo / Extended Cut / ] Ворон Скачать
1 | 0
Фильмы 2011 [ 1.45 GB ] Форсаж 5 / Fast Five [2011 HDTVRip] killermax2013 Скачать
1 | 0
Фильмы с авторской озвучкой [ 2.24 GB ] Форсаж 5 / Fast Five [2011 BDRip] [EXTENDED] [AVO] killermax2013 Скачать
1 | 0


Последний раз редактировалось: Бумер (2013-10-06 13:50), всего редактировалось 1 раз

28-11-2019 20:33  

Отключить всю рекламу на сайте

18-12-2013 12:39 Форсаж 5 Скачать торрент  

встаньте на раздочу плизpb.wtf



20-05-2015 16:59 Форсаж 5 Скачать торрент  

встаньте на раздочу плиз !!!pb.wtf



    Дорогой пользователь! Огромная просьба, поблагодарите релизера, оцените раздачу и оставьте свои комментарий, если Вы скачали Форсаж 5 через торрент бесплатно!
    Комментировать посты могут только пользователи прошедшие не сложную регистрацию
    Показать сообщения:    

    Форсаж 5 через торрент
    Скачать бесплатно Форсаж 5
    Форсаж 5 скачать торрент
    Форсаж 5 смотреть онлайн
    Cкачать фильм Форсаж 5 бесплатно
    Форсаж 5 скачать торрент в хорошем качестве
    Форсаж 5 смотреть онлайн бесплатно в хорошем качестве


    Вы не можете начинать темы
    Вы не можете отвечать на сообщения
    Вы не можете редактировать свои сообщения
    Вы не можете удалять свои сообщения
    Вы не можете голосовать в опросах
    Вы не можете прикреплять файлы к сообщениям
    Вы можете скачивать файлы