MEGA SALE -50% FORZA HORIZON 4 ULTIMATE+ВСЕ DLC+ОНЛАЙН всего за 599р. 299 руб. (супер цена). Внимание количество ограничено!!!

iTunes

1+1

iTunes

мы

iTunes

1

iTunes

Чернобыль

iTunes

Ральф против интернета

Лицензия

ПШазам

Лицензия

Игра престолов

Лицензия

30
pack

ВАЖНО

!!Акция!!

Alien_RageХит недели

RePack

Resident Evil 21

ИГРА 18+

pack

RePack

Metro:Exodus

!!Акция!!

Alien_Rage

RePack

fifa19

RePack

Assassins Creed: Odyssey

RePack

NEED FOR SPEED™ PAYBACK

3 сезон

9 сезон

Бесстыжие 9 сезон

Все сериалы

все сериалы на PB.wtf

RePack

FAR CRY 5
Ребята, катастрофически не хватает 7730р. для оплаты серверов за ИЮЛЬ (всвязи с блокировками трафик упал в 3 раза), 1-2р., выручайте.
  

Перевал Тени / Тень / Shadow (Федерико Дзампальоне / Federico Zampaglione) [2009, Италия, ужасы, HDRip] VO Voiz + VO zamez + original eng + Sub rus pb.wtf

Перевал Тени через торрент pb.wtf

Размер: 1.84 GB | Добавлен: 5 лет 10 мес. назад | Торрент скачан:152 раза
Скачать  

06-10-2013 15:29 Перевал Тени Скачать торрент  


Перевал Тени / Тень / Shadow

«Reality Can Be Sicker Than Nightmares»

  • Год выпуска:2009
  • Страна:Италия
  • Жанр:ужасы

  • Продолжительность: 01:10:39
  • Перевод:Любительский (одноголосый закадровый) Voiz fix (нецензурный)+Любительский (одноголосый закадровый) zamez fix (цензурный)

  • Субтитры: русские-softsub (SRT)
    • Режиссер:Федерико Дзампальоне / Federico Zampaglione

  • В ролях:Джэйк Максворфи (David), Карина Теста (Angeline), Нуот Аркуинт (Mortis), Крис Коппола (Buck), Оттавиано Блитч (Fred), Мэтт Патрези (U.S. Lieutenant), Эмилио Де Марчини (Doctor), Дзанпьеро Коньоли (Customer)
    • Описание:
      Молодой солдат после очередной операции в Ираке решает отдохнуть. Познакомившись с молодой девушкой, и продолжив путешествие вместе, они предстают перед лицом такого ужаса, который Дэвиду не приходилось видеть даже во время его службы.

    Бюджет:€1 000 000 / Мировая премьера:28 августа 2009
    • Качество:HDRip
    • Формат:AVI
    • Видео кодек: XviD
    • Аудио кодек:AC3
    • Видео: XviD, 720x304 (2.35:1), 2467 kbps, 25 fps, 0,451 bpp
    • Аудио №1: AC3 / 5.1 / 48 kHz / 448 kbps / 16 bit-Voiz
    • Аудио №2: AC3 / 5.1 / 48 kHz / 384 kbps / 16 bit -zamez
    • Аудио 3: 48 kHz, AC3 Dolby Digital, 3/2 (L,C,R,l,r) + LFE ch, ~384.00 kbps avg |английский- Отдельно

    General
    Complete name : D:ТорентыShadowShadow.avi
    Format : AVI
    Format/Info : Audio Video Interleave
    File size : 1.64 GiB
    Duration : 1h 10mn
    Overall bit rate : 3 314 Kbps
    Writing application : VirtualDubMod 1.5.10.3 (build 2550/release)
    Writing library : VirtualDubMod build 2550/release

    Video
    ID : 0
    Format : MPEG-4 Visual
    Format profile : Advanced Simple@L5
    Format settings, BVOP : 3
    Format settings, QPel : No
    Format settings, GMC : No warppoints
    Format settings, Matrix : Default (H.263)
    Codec ID : XVID
    Codec ID/Hint : XviD
    Duration : 1h 10mn
    Bit rate : 2 467 Kbps
    Width : 720 pixels
    Height : 304 pixels
    Display aspect ratio : 2.35:1
    Frame rate : 25.000 fps
    Color space : YUV
    Chroma subsampling : 4:2:0
    Bit depth : 8 bits
    Scan type : Progressive
    Compression mode : Lossy
    Bits/(Pixel*Frame) : 0.451
    Stream size : 1.22 GiB (74%)
    Writing library : XviD 1.2.0.dev47 (UTC 2006-11-01)

    Audio #1
    ID : 1
    Format : AC-3
    Format/Info : Audio Coding 3
    Mode extension : CM (complete main)
    Codec ID : 2000
    Duration : 1h 10mn
    Bit rate mode : Constant
    Bit rate : 448 Kbps
    Channel(s) : 6 channels
    Channel positions : Front: L C R, Side: L R, LFE
    Sampling rate : 48.0 KHz
    Bit depth : 16 bits
    Compression mode : Lossy
    Stream size : 226 MiB (14%)
    Alignment : Split accross interleaves
    Interleave, duration : 40 ms (1.00 video frame)
    Interleave, preload duration : 500 ms

    Audio #2
    ID : 2
    Format : AC-3
    Format/Info : Audio Coding 3
    Mode extension : CM (complete main)
    Codec ID : 2000
    Duration : 1h 10mn
    Bit rate mode : Constant
    Bit rate : 384 Kbps
    Channel(s) : 6 channels
    Channel positions : Front: L C R, Side: L R, LFE
    Sampling rate : 48.0 KHz
    Bit depth : 16 bits
    Compression mode : Lossy
    Stream size : 194 MiB (12%)
    Alignment : Split accross interleaves
    Interleave, duration : 40 ms (1.00 video frame)
    Interleave, preload duration : 500 ms

    © Оформление by Vetal
    pb.wtf



  • Скачать Перевал Тени через торрент http://i58.fastpic.ru/big/2013/0922/31/4683bcd4960801b02604b79f43d30631.png Скачать фильм Перевал Тени через торрент бесплантно в хорошем качестве Описание:Молодой солдат после очередной операции в Ираке решает отдохнуть. Познакомившись с молодой девушкой, и продолжив путешествие ... 9 10 12
    Info! Золотая раздача, скачанное не засчитывается.
    Торрент: Зарегистрирован [2013-10-06 15:29] · скачан: 152 раз
    Статус: √ проверено
    Размер: 1.84 GB
    Как cкачать? Как скачать Перевал Тени через торрент | qTorrent


    >> Регистрируемся здесь <<






    Отзывы и комментарии о схеме читаем и пишем здесь: ---> Отзывы и комментарии о схеме

    Новые благодарочки в телеграм довольных пользователей:
    скриншот   скриншот   скриншот   скриншот   скриншот
      Дорогой пользователь! Огромная просьба, поблагодарите релизера, оцените раздачу и оставьте свои комментарий, если Вы скачали Перевал Тени через торрент бесплатно! Внесите свою лепту в развитие PiratBit!
      Комментировать посты могут только пользователи прошедшие не сложную регистрацию
      Показать сообщения:    

      Перевал Тени через торрент
      Скачать бесплатно Перевал Тени
      Перевал Тени скачать торрент
      Перевал Тени смотреть онлайн
      Cкачать фильм Перевал Тени бесплатно
      Перевал Тени скачать торрент в хорошем качестве
      Перевал Тени смотреть онлайн бесплатно в хорошем качестве


      Вы не можете начинать темы
      Вы не можете отвечать на сообщения
      Вы не можете редактировать свои сообщения
      Вы не можете удалять свои сообщения
      Вы не можете голосовать в опросах
      Вы не можете прикреплять файлы к сообщениям
      Вы можете скачивать файлы