Ссылка на приватное зеркало нашего сайта всего за 1$. Внимание количество ограничено!!!

2 сезон

iTunes

1 сезон

1

2 сезон

2 сезон

iTunes

1 сезон

RePack

30

Ultimate

ВАЖНО

ИГРА 18+

pack

RePack

MK11
pack

Забери бонус

RePack

jed

!!Акция!!

Alien_Rage

RePack

fifa19

RePack

Assassins Creed: Odyssey

RePack

NEED FOR SPEED™ PAYBACK

4 сезон

9 сезон

Бесстыжие 9 сезон

Все сериалы

все сериалы на PB.wtf

RePack

FAR CRY 5
  

Борджиа / The Borgias / Cезон: 2 (Серии: 10 из 10) (Нил Джордан, Джон Мэйбери, Джереми Подесва) [2012 г., драма, криминал, история, HDTV, MVO закадровый (LostFilm) ] pb.wtf

Борджиа через торрент pb.wtf

Размер: 5.63 GB | Добавлен: 7 лет 1 мес. назад | Торрент скачан:470 раз
Скачать  

04-06-2012 02:23 Борджиа Скачать торрент  

Борджиа (сериал),Сезон-2 / The Borgias Seson-2 Год выпуска: 2012
Страна: Канада, Ирландия, Венгрия
Жанр: драма, криминал, история
Продолжительность: ~ 00:55:00х10
Перевод: Профессиональный многоголосый закадровый (LostFilm)

Режиссер: Нил Джордан, Джон Мэйбери, Джереми Подесва
Продюссер: Шила Хокин, Адам Гудман, Нил Джордан

В ролях: Джереми Айронс, Франсуа Арно, Холли Грэйнджер, Колм Фиор, Питер Салливан, Лотте Вербеек, Джоэнн Уэлли, Шон Харрис, Дэвид Оукс, Дэвид Алпей

Описание: В конце XVВ века в руках Папы Римского сосредоточилась неограниченная Влacть: он мог короновать и свергать королей, изменять судьбу империй. Некогда доброе имя церкви стало теперь ассоциироваться только с коррупцией и безнравственностью. В 1492 году, после смерти папы Иннокентия VIII, престол Святого Петра занял Александр VIВ (в миру Родриго Борджиа), который вписал в историю имя клана Борджиа отнюдь не благими деяниями...
Качество: HDTVRip
Формат: AVI
Видео кодек: XviD
Аудио кодек: MP3
Видео: MPEG4, XviD, 720x400 (16/9), 23.976 fps, 1 450 Kbps (0.210 bit/pixel)
Аудио#1: MP3 , 48.0 KHz, 2 ch, 128 Kbps, CBR
Формат : AVI
Формат/Информация : Audio Video Interleave
Размер файла : 602 Мбайт
Продолжительность : 52 м.
Общий поток : 1591 Кбит/сек
Программа кодирования : Nandub v1.0rc2
Библиотека кодирования : Nandub build 1853/release

Видео
Идентификатор : 0
Формат : MPEG-4 Visual
Профиль формата : Simple@L3
Параметр BVOP формата : Нет
Параметр QPel формата : Нет
Параметр GMC формата : Без точки перехода
Параметр матрицы формата : Default (H.263)
Идентификатор кодека : XVID
Идентификатор кодека/Подсказка : XviD
Продолжительность : 52 м.
Битрейт : 1450 Кбит/сек
Ширина : 720 пикселей
Высота : 400 пикселей
Соотношение сторон : 16:9
Частота кадров : 23,976 кадра/сек
Цветовое пространство : YUV
Субдискретизация насыщенности : 4:2:0
Битовая глубина : 8 бит
Тип развёртки : Прогрессивная
Метод сжатия : С потерями
Бит/(Пиксели*Кадры) : 0.210
Размер потока : 549 Мбайт (91%)
Библиотека кодирования : XviD 1.2.1 (UTC 2008-12-04)

Аудио
Идентификатор : 1
Формат : MPEG Audio
Версия формата : Version 1
Профиль формата : Layer 3
Режим : Joint stereo
Расширение режима : MS Stereo
Идентификатор кодека : 55
Идентификатор кодека/Подсказка : MP3
Продолжительность : 52 м.
Вид битрейта : Постоянный
Битрейт : 128 Кбит/сек
Каналы : 2 канала
Частота : 48,0 КГц
Метод сжатия : С потерями
Размер потока : 48,5 Мбайт (8%)
Выравнивание : Соединение по промежуткам
Продолжительность промежутка : 24 мс. (0,58 видеокадр)
Время предзагрузки промежутка : 480 мс.


Раздача ведётся путём добавления новых серий; при каждом добавлении создаётся новый торрент. Чтобы начать докачку новой серии, пользователям необходимо сделать следующее:
(1) остановить скачивание,
(2) удалить старый торрент у себя из клиента (старые серии удалять не надо),
(3) скачать новый торрент и запустить его у себя в клиенте вместо старого, при этом указать клиенту путь в старую папку куда и должно происходить скачивание новых серий.

Ваш клиент при этом должен произвести хеширование (проверку) старой папки (если не производит сам - помогите ему сделать это), и будет докачивать только те серии которых у вас ещё нет. Старые серии при этом не удаляются, а продолжают раздаваться!

Eсли вы уже удалили старые серии, то предотвратить повторную закачку старых серий можно, отжав галочку в соответствующих местах при запуске нового торрента. По возможности, желательно не удалять старые серии как можно дольше чтобы релизёр не столько продолжал раздавать старые серии, а смог сконцентрироваться на новых.
01. Бык Борджиа / The Borgia Bull
02. Паоло / Paolo
03. Красивый обман / The Beautiful Deception
04. Бродячие псы / Stray Dogs
05. Выбор / The Choice
06. День пепла / Day of Ashes
07. Осада в Форли / The Siege at Forli
08. Правда или Ложь / Truth and Lies
09. Мир чудес / World of Wonders
10. Исповедь / The Confession

pb.wtf



Скачать Борджиа через торрент http://i34.fastpic.ru/big/2012/0415/73/79d2197cab00038b93fdd8560614e773.jpg Скачать фильм Борджиа через торрент бесплантно в хорошем качестве Описание: В конце XVВ века в руках Папы Римского сосредоточилась неограниченная Влacть: он мог короновать и свергать королей, изменять ... 9.9 10 19
Info! Золотая раздача, скачанное не засчитывается.
Торрент: Зарегистрирован [2013-10-06 23:34] · скачан: 470 раз
Статус: √ проверено
Размер: 5.63 GB
Как cкачать? Как скачать Борджиа через торрент | qTorrent

% Раздел Тема Автор DL S | L
Зарубежные сериалы [ 11.31 GB ] Борджиа / The Borgias / Cезон: 2 [2011 история HDTV-Rip ] MVO m9sо Скачать
1 | 0


Последний раз редактировалось: F.U. (2012-06-22 09:05), всего редактировалось 3 раз(а)

28-11-2019 20:33  

Отключить всю рекламу на сайте

10-06-2012 16:23 Борджиа Скачать торрент  

Добавлена 10 серия 22.06.12pb.wtf



23-10-2012 13:29 Борджиа Скачать торрент  

встаньте на раздачу плизpb.wtf



13-09-2013 19:03 Борджиа Скачать торрент  

Дайте газу,будьте людьми! 91,7% pb.wtf



15-02-2015 11:55 Борджиа Скачать торрент  

на раздачу(pb.wtf



    Дорогой пользователь! Огромная просьба, поблагодарите релизера, оцените раздачу и оставьте свои комментарий, если Вы скачали Борджиа через торрент бесплатно! Внесите свою лепту в развитие PiratBit!
    Комментировать посты могут только пользователи прошедшие не сложную регистрацию
    Показать сообщения:    

    Борджиа через торрент
    Скачать бесплатно Борджиа
    Борджиа скачать торрент
    Борджиа смотреть онлайн
    Cкачать фильм Борджиа бесплатно
    Борджиа скачать торрент в хорошем качестве
    Борджиа смотреть онлайн бесплатно в хорошем качестве


    Вы не можете начинать темы
    Вы не можете отвечать на сообщения
    Вы не можете редактировать свои сообщения
    Вы не можете удалять свои сообщения
    Вы не можете голосовать в опросах
    Вы не можете прикреплять файлы к сообщениям
    Вы можете скачивать файлы