MEGA SALE -50% FORZA HORIZON 4 ULTIMATE+ВСЕ DLC+ОНЛАЙН всего за 599р. 299 руб. (супер цена). Внимание количество ограничено!!!

iTunes

1+1

iTunes

мы

iTunes

1

iTunes

Чернобыль

iTunes

Ральф против интернета

Лицензия

ПШазам

Лицензия

Игра престолов

Лицензия

30
pack

ВАЖНО

!!Акция!!

Alien_RageХит недели

RePack

Resident Evil 21

ИГРА 18+

pack

RePack

Metro:Exodus

!!Акция!!

Alien_Rage

RePack

fifa19

RePack

Assassins Creed: Odyssey

RePack

NEED FOR SPEED™ PAYBACK

3 сезон

9 сезон

Бесстыжие 9 сезон

Все сериалы

все сериалы на PB.wtf

RePack

FAR CRY 5
Ребята, катастрофически не хватает 7730р. для оплаты серверов за ИЮЛЬ (всвязи с блокировками трафик упал в 3 раза), 1-2р., выручайте.
  

Скеллиг / Skellig (Аннабел Джэнкел) [2009 г., фэнтези, драма, детектив, семейный., DVDRip, ] MVO "Студия 303" pb.wtf

Скеллиг через торрент pb.wtf

Размер: 700 MB | Добавлен: 5 лет 10 мес. назад | Торрент скачан:99 раз
Скачать  

07-10-2013 13:27 Скеллиг Скачать торрент  

Скеллиг / Skellig
2009

фэнтези, драма, детектив, семейный.
1:40:00
Профессиональный (многоголосый, закадровый) - "Студия 303"

Режиссер: Аннабел Джэнкел
Продюссер: Ник Хиршкорн, Аннабел Джэнкел, Дэйзи Олсоп.
Сценарий: Ирена Бригналл, Дэвид Элмонд.

Премьера в мире: 12 апреля 2009

Рекомендуется присутствие родителей.

7.223 (1 142)

Тим Рот, Келли Макдоналд, Билл Милнер, Джон Симм, Скай Беннетт, Жермен Аллен, Эрос Влахос, Александр Армстронг, Навин Чоудхри.


В основе картины — одноименный бестселлер Дэвида Олмонда. Действие происходит на севере Англии. В центре сюжета — мальчик Майкл, обнаруживший в гараже своего нового дома загадочное существо по имени Скеллиг — наполовину сову, наполовину ангела.




Качество: DVDRip
Формат: AVI
Видео кодек: XviD
Аудио кодек: MP3
Видео: 720x384 (1.85:1), 25.000 fps, XviD build 50 ~860 kbps avg, 0.124 bit/pixel
Аудио RUS: 48 kHz, МР3, 2/0 (L,R) ch, ~112.00 kbps avg





Формат : AVI
Формат/Информация : Audio Video Interleave
Размер файла : 700 MiB
Продолжительность : 1h 39mn
Общий поток : 984 Kbps

Video
Идентификатор : 0
Формат : MPEG-4 Visual
Профиль формата : Simple@L3
Параметр BVOP формата : No
Параметр QPel формата : No
Параметр GMC формата : No warppoints
Параметр матрицы формата : Default (H.263)
Идентификатор кодека : XVID
Идентификатор кодека/Подсказка : XviD
Продолжительность : 1h 39mn
Битрейт : 860 Kbps
Ширина : 720 pixels
Высота : 384 pixels
Соотношение сторон : 1.85:1
Частота кадров : 25.000 fps
Цветовое пространство : YUV
Субдискретизация насыщенности : 4:2:0
Битовая глубина : 8 bits
Тип развёртки : Progressive
Метод сжатия : Lossy
Бит/(Пиксели*Кадры) : 0.124
Размер потока : 611 MiB (87%)
Библиотека кодирования : XviD 1.1.0 Beta2 (UTC 2005-04-04)

Audio
Идентификатор : 1
Формат : MPEG Audio
Версия формата : Version 1
Профиль формата : Layer 3
Режим : Joint stereo
Расширение режима : MS Stereo
Идентификатор кодека : 55
Идентификатор кодека/Подсказка : MP3
Продолжительность : 1h 39mn
Вид битрейта : Constant
Битрейт : 112 Kbps
Каналы : 2 channels
Частота : 48.0 KHz
Метод сжатия : Lossy
Размер потока : 79.7 MiB (11%)
Выравнивание : Aligned on interleaves
Продолжительность промежутка : 24 ms (0.60 video frame)
Время предзагрузки промежутка : 432 ms

pb.wtf



Скачать Скеллиг через торрент http://pic.kartinco.top/images/4/x8ry6.jpg Скачать фильм Скеллиг через торрент бесплантно в хорошем качестве Скеллиг / Skellig 2009 фэнтези, драма, детектив, семейный. 1:40:00 Профессиональный (, ) - "Студия 303" Режиссер: ... 10 10 10
Info! Золотая раздача, скачанное не засчитывается.
Торрент: Зарегистрирован [2013-10-07 13:27] · скачан: 99 раз
Статус: √ проверено
Размер: 700 MB
Как cкачать? Как скачать Скеллиг через торрент | qTorrent


>> Регистрируемся здесь <<






Отзывы и комментарии о схеме читаем и пишем здесь: ---> Отзывы и комментарии о схеме

Новые благодарочки в телеграм довольных пользователей:
скриншот   скриншот   скриншот   скриншот   скриншот

07-10-2013 18:10 Скеллиг Скачать торрент  

Очень хороший фильм!pb.wtf



07-10-2013 18:33 Скеллиг Скачать торрент  

samuel02 писал(а):

Очень хороший фильм!


Рад, что вам понравилось)pb.wtf



    Дорогой пользователь! Огромная просьба, поблагодарите релизера, оцените раздачу и оставьте свои комментарий, если Вы скачали Скеллиг через торрент бесплатно! Внесите свою лепту в развитие PiratBit!
    Комментировать посты могут только пользователи прошедшие не сложную регистрацию
    Показать сообщения:    

    Скеллиг через торрент
    Скачать бесплатно Скеллиг
    Скеллиг скачать торрент
    Скеллиг смотреть онлайн
    Cкачать фильм Скеллиг бесплатно
    Скеллиг скачать торрент в хорошем качестве
    Скеллиг смотреть онлайн бесплатно в хорошем качестве


    Вы не можете начинать темы
    Вы не можете отвечать на сообщения
    Вы не можете редактировать свои сообщения
    Вы не можете удалять свои сообщения
    Вы не можете голосовать в опросах
    Вы не можете прикреплять файлы к сообщениям
    Вы можете скачивать файлы