Ссылка на приватное зеркало нашего сайта всего за 1$. Внимание количество ограничено!!!

2 сезон

iTunes

1 сезон

1

iTunes

iTunes

iTunes

1 сезон

RePack

30

ИГРА 18+

pack

ВАЖНО

!!Акция!!

Alien_RageХит недели

RePack

MK11
pack

Забери бонус

RePack

jed

!!Акция!!

Alien_Rage

RePack

fifa19

RePack

Assassins Creed: Odyssey

RePack

NEED FOR SPEED™ PAYBACK

4 сезон

9 сезон

Бесстыжие 9 сезон

Все сериалы

все сериалы на PB.wtf

RePack

FAR CRY 5
  

Тюряга / Lock Up (Джон Флинн) [1989 г., боевик, триллер, криминал, BDRip 1080p,Профессиональный (многоголосый, закадровый) pb.wtf

Тюряга через торрент pb.wtf

Размер: 7.77 GB | Добавлен: 7 лет назад | Торрент скачан:5 раз
Скачать  

08-10-2013 16:27 Тюряга Скачать торрент  

Тюряга / Lock Up
Год выпуска: 1989
Страна: США
Жанр: боевик, триллер, криминал,
Продолжительность: 01:48:33
Перевод: Профессиональный (многоголосый, закадровый)
Субтитры: НЕТ

Режиссер: Джон Флинн

В ролях: Сильвестр Сталлоне, Дональд Сазерленд, Джон Эймос, Сонни Лэндэм, Том Сайзмор, Фрэнк МакРей, Дарлэнн Флюгел, Уильям Аллен Янг, Ларри Романо, Джордан Лунд,

Описание: Сильвестр Сталлоне нажил себе много врагов в свое время, когда был Рембо и Рокки. Но никто не желал ему столько неприятностей, как начальник тюрьмы Драмгул. Примерный зэк Фрэнк Леоне становится мишенью жестокого и изобретательного Драмгула, мечтающего сгноить его в тюряге. Тюремная одиссея Леоне впечатляет, что не удивительно: фильм снимался с участием полутора тысяч настоящих заключенных...

Качество: BDRip 1080p
Формат: MKV
Видео кодек: H.264
Аудио кодек: AC3
Видео: (1920x1040),9 799 Кбит/с, 24.000 кадра/сек
Аудио: AC-3, 6 ch, 640 kbps (Rus) 48.0 KHz Дубляж
скриншот   скриншот   скриншот  

General
Unique ID : 216551680085347070451265408421148175824 (0xA2EA56261170AC9183D1C6BA8EDB2DD0)
Complete name :Lock Up.1989.mkv
Format : Matroska
File size : 7.77 GiB
Duration : 1h 48mn
Overall bit rate : 10.2 Mbps
Movie name : Lock Up.1989
Encoded date : UTC 2013-01-16 06:33:41
Writing application : mkvmerge v5.8.0 ('No Sleep / Pillow') built on Sep 2 2012 15:37:04
Writing library : libebml v1.2.3 + libmatroska v1.3.0

Video #1
ID : 1
Format : AVC
Format/Info : Advanced Video Codec
Format profile : High@L4.1
Format settings, CABAC : Yes
Format settings, ReFrames : 4 frames
Codec ID : V_MPEG4/ISO/AVC
Duration : 1h 48mn
Bit rate : 9 799 Kbps
Width : 1 920 pixels
Height : 1 040 pixels
Display aspect ratio : 16:9
Frame rate : 24.000 fps
Color space : YUV
Chroma subsampling : 4:2:0
Bit depth : 8 bits
Scan type : Progressive
Bits/(Pixel*Frame) : 0.204
Stream size : 7.27 GiB (94%)
Title : Hatfield..
Writing library : x264 core 129 r2230 1cffe9f
Encoding settings : cabac=1 / ref=4 / deblock=1:0:0 / analyse=0x3:0x113 / me=umh / subme=10 / psy=1 / psy_rd=1.00:0.10 / mixed_ref=1 / me_range=32 / chroma_me=1 / trellis=2 / 8x8dct=1 / cqm=0 / deadzone=21,11 / fast_pskip=0 / chroma_qp_offset=-3 / threads=12 / lookahead_threads=2 / sliced_threads=0 / nr=0 / decimate=0 / interlaced=0 / bluray_compat=0 / constrained_intra=0 / bframes=5 / b_pyramid=2 / b_adapt=2 / b_bias=0 / direct=3 / weightb=1 / open_gop=0 / weightp=2 / keyint=240 / keyint_min=24 / scenecut=40 / intra_refresh=0 / rc=2pass / mbtree=0 / bitrate=9799 / ratetol=1.0 / qcomp=0.60 / qpmin=0 / qpmax=69 / qpstep=4 / cplxblur=20.0 / qblur=0.5 / ip_ratio=1.40 / pb_ratio=1.30 / aq=1:0.80
Language : English

Audio #2
ID : 2
Format : AC-3
Format/Info : Audio Coding 3
Mode extension : CM (complete main)
Codec ID : A_AC3
Duration : 1h 48mn
Bit rate mode : Constant
Bit rate : 448 Kbps
Channel(s) : 6 channels
Channel positions : Front: L C R, Side: L R, LFE
Sampling rate : 48.0 KHz
Bit depth : 16 bits
Compression mode : Lossy
Stream size : 348 MiB (4%)
Title : Профессиональный (многоголосый, закадровый) (R5)
Language : Russian

Menu
00:00:00.000 : :Chapter 01
00:08:03.458 : :Chapter 02
00:18:36.416 : :Chapter 03
00:25:58.500 : :Chapter 04
00:40:47.000 : :Chapter 05
00:54:25.125 : :Chapter 06
01:01:28.333 : :Chapter 07
01:07:43.166 : :Chapter 08
01:15:13.083 : :Chapter 09
01:23:01.708 : :Chapter 10
01:35:11.333 : :Chapter 11
01:43:44.583 : :Chapter 12

pb.wtf



Скачать Тюряга через торрент http://pic.kartinco.top/images/4/qlpf3.jpg Скачать фильм Тюряга через торрент бесплантно в хорошем качестве Описание: Сильвестр Сталлоне нажил себе много врагов в свое время, когда был Рембо и Рокки. Но никто не желал ему столько неприятностей, ... 9.9 10 9
Info! Золотая раздача, скачанное не засчитывается.
Торрент: Зарегистрирован [2013-10-08 16:27] · скачан: 5 раз
Статус: √ проверено
Размер: 7.77 GB
Как cкачать? Как скачать Тюряга через торрент | qTorrent

% Раздел Тема Автор DL S | L
Ultra HD (UHD: 2K, 4K, 8K) — видео сверхвысокой чёткости [ 68.63 GB ] Тюряга / Взаперти / Lock Up [1989 UHD BDRemux 2160p] MVO+3xDVO+5xAVO bober100 Скачать
1 | 0
Ultra HD (UHD: 2K, 4K, 8K) — видео сверхвысокой чёткости [ 54.75 GB ] Тюряга / Взаперти / Lock Up [1989 UHD BDRemux 2160p] [Dolby Vision TV] 2xMVO+AVO bober100 Скачать
1 | 0
Фильмы [HD 720p, 1080p] (Хороший звук DUB, MVO) [ 16.39 GB ] Тюряга / Взаперти / Lock Up [1989 BDRip 1080p] 2xMVO 2xDVO 3xAVO Леонид Ильич Скачать
1 | 0
Фильмы с авторской озвучкой [ 1.79 GB ] Тюряга / Взаперти / Lock Up [1989 HDRip] 2x[AVO] killermax2013 Скачать
1 | 0
Фильмы [HD 720p, 1080p] (Хороший звук DUB, MVO) [ 17.22 GB ] Тюряга / Lock up [1989 BDRip 1080p by msltel] 2 x MVO DVO 4 x AVO msltel Скачать
1 | 0
Фильмы [HD 720p, 1080p] (Хороший звук DUB, MVO) [ 6.48 GB ] Тюряга / Lock up [1989 BDRip 720p by msltel] 2 x MVO DVO 4 x AVO msltel Скачать
1 | 0
Фильмы до 2000 г. [ 1.46 GB ] Взаперти / Тюряга / Lock up [1989 HDRip] MVO -=Cherry=- Скачать
1 | 0

28-11-2019 20:33  

Отключить всю рекламу на сайте

28-11-2013 20:54 Тюряга Скачать торрент  

судыы ауууууу есть кто в лесу!!pb.wtf



    Дорогой пользователь! Огромная просьба, поблагодарите релизера, оцените раздачу и оставьте свои комментарий, если Вы скачали Тюряга через торрент бесплатно! Внесите свою лепту в развитие PiratBit!
    Комментировать посты могут только пользователи прошедшие не сложную регистрацию
    Показать сообщения:    

    Тюряга через торрент
    Скачать бесплатно Тюряга
    Тюряга скачать торрент
    Тюряга смотреть онлайн
    Cкачать фильм Тюряга бесплатно
    Тюряга скачать торрент в хорошем качестве
    Тюряга смотреть онлайн бесплатно в хорошем качестве


    Вы не можете начинать темы
    Вы не можете отвечать на сообщения
    Вы не можете редактировать свои сообщения
    Вы не можете удалять свои сообщения
    Вы не можете голосовать в опросах
    Вы не можете прикреплять файлы к сообщениям
    Вы можете скачивать файлы