Ссылка на приватное зеркало нашего сайта всего за 1$. Внимание количество ограничено!!!

2 сезон

iTunes

1 сезон

1

iTunes

iTunes

iTunes

1 сезон

RePack

30

ИГРА 18+

pack

ВАЖНО

!!Акция!!

Alien_RageХит недели

RePack

MK11
pack

Забери бонус

RePack

jed

!!Акция!!

Alien_Rage

RePack

fifa19

RePack

Assassins Creed: Odyssey

RePack

NEED FOR SPEED™ PAYBACK

4 сезон

9 сезон

Бесстыжие 9 сезон

Все сериалы

все сериалы на PB.wtf

RePack

FAR CRY 5
  

Судная ночь / The Purge (Джеймс ДеМонако / James DeMonaco) [2013, триллер, ужасы, BDRip 1080р, DUB, Лицензия] pb.wtf

Судная ночь через торрент pb.wtf

Размер: 9.4 GB | Добавлен: 7 лет назад | Торрент скачан:846 раз
Скачать  

09-10-2013 09:16 Судная ночь Скачать торрент  

Судная ночь / The Purge

Год выпуска : 2013
Страна: США, Франция
Жанр: Триллер, ужасы

Продолжительность: 01:25:18
Перевод: Дубляж [Лицензия]

Субтитры: Russian (Forced, iTunes), Russian (iTunes), Ukrainian (iTunes), English, English (SDH), English (SDH-COLORED)
Режиссер: Джеймс ДеМонако / James DeMonaco
В ролях: Итан Хоук (James Sandin), Лина Хиди (Mary Sandin), Макс Буркхолдер (Charlie Sandin), Аделаида Кэйн (Zoey Sandin), Эдвин Ходж (Bloody Stranger), Риз Уэйкфилд (Polite Leader), Тони Оллер (Henry), Ария Барейкис (Mrs. Grace Ferrin), Том Йи (Mr. Cali), Крис Малки (Mr. Halverson), Тиша Френч (Mrs. Halverson), Дэна Банч (Mr. Ferrin)
Описание: Мир будущего - мир без преступности... безработицы... войн. И все это благодаря одной ночи в году, когда можно отправить на тот свет любого - злобного босса, шумных соседей, надоевших родственников. В Судную ночь дозволено все - главное дожить до рассвета.
Рейтинг

imdb.com: 5.50 (36 150)
MPAA: R - Лицам до 17 лет обязательно присутствие взрослого
Качество: BDRip 1080p
Формат: MKV
Видео кодек: AVC
Аудио кодек: DTS
Видео: AVC, 1920x800 (2.40:1), 13500 kbps, 23,976 fps
Аудио №1: DTS / 5.1 / 48 kHz / 755 kbps / 24 bit Дубляж (Blu-ray CEE)
Аудио №2: DTS / 5.1 / 48 kHz / 1510 kbps / 24 bit Английский

General
Unique ID : 209040118724604542709629650987632246298 (0x9D43A9948DB80412A783CD3A24FF3E1A)
Complete name : I:The.Purge.2013.1080p.BluRay.DTS.Rus.Eng.mkv
Format : Matroska
Format version : Version 2
File size : 9.40 GiB
Duration : 1h 25mn
Overall bit rate : 15.8 Mbps
Encoded date : UTC 2013-10-08 23:23:06
Writing application : mkvmerge v3.4.0 ('Rapunzel') built on May 15 2010 09:38:20
Writing library : libebml v0.8.0 + libmatroska v0.9.0

Video
ID : 1
Format : AVC
Format/Info : Advanced Video Codec
Format profile : High@L4.1
Format settings, CABAC : Yes
Format settings, ReFrames : 5 frames
Codec ID : V_MPEG4/ISO/AVC
Duration : 1h 25mn
Bit rate : 13.5 Mbps
Width : 1 920 pixels
Height : 800 pixels
Display aspect ratio : 2.40:1
Frame rate : 23.976 fps
Color space : YUV
Chroma subsampling : 4:2:0
Bit depth : 8 bits
Scan type : Progressive
Bits/(Pixel*Frame) : 0.367
Stream size : 7.87 GiB (84%)
Writing library : x264 core 133 r2334 a3ac64b
Encoding settings : cabac=1 / ref=5 / deblock=1:-3:-3 / analyse=0x3:0x113 / me=umh / subme=11 / psy=1 / psy_rd=1.05:0.10 / mixed_ref=1 / me_range=32 / chroma_me=1 / trellis=2 / 8x8dct=1 / cqm=0 / deadzone=21,11 / fast_pskip=0 / chroma_qp_offset=-5 / threads=12 / lookahead_threads=2 / sliced_threads=0 / nr=0 / decimate=0 / interlaced=0 / bluray_compat=0 / constrained_intra=0 / bframes=8 / b_pyramid=2 / b_adapt=2 / b_bias=0 / direct=3 / weightb=1 / open_gop=0 / weightp=2 / keyint=250 / keyint_min=23 / scenecut=40 / intra_refresh=0 / rc_lookahead=50 / rc=2pass / mbtree=1 / bitrate=13500 / ratetol=1.0 / qcomp=0.75 / qpmin=0 / qpmax=69 / qpstep=4 / cplxblur=20.0 / qblur=0.5 / ip_ratio=1.20 / aq=1:0.80
Language : English
Default : Yes
Forced : No

Audio #1
ID : 2
Format : DTS
Format/Info : Digital Theater Systems
Codec ID : A_DTS
Duration : 1h 25mn
Bit rate mode : Constant
Bit rate : 755 Kbps
Channel(s) : 6 channels
Channel positions : Front: L C R, Side: L R, LFE
Sampling rate : 48.0 KHz
Bit depth : 24 bits
Compression mode : Lossy
Stream size : 460 MiB (5%)
Title : DTS 5.1 @ 768 kbps - DUB, Blu-ray CEE
Language : Russian
Default : Yes
Forced : No

Audio #2
ID : 3
Format : DTS
Format/Info : Digital Theater Systems
Codec ID : A_DTS
Duration : 1h 25mn
Bit rate mode : Constant
Bit rate : 1 510 Kbps
Channel(s) : 6 channels
Channel positions : Front: L C R, Side: L R, LFE
Sampling rate : 48.0 KHz
Bit depth : 24 bits
Compression mode : Lossy
Delay relative to video : 11ms
Stream size : 921 MiB (10%)
Title : DTS 5.1 @ 1536 kbps
Language : English
Default : No
Forced : No

Text #1
ID : 4
Format : UTF-8
Codec ID : S_TEXT/UTF8
Codec ID/Info : UTF-8 Plain Text
Title : Forced
Language : Russian
Default : Yes
Forced : No

Text #2
ID : 5
Format : UTF-8
Codec ID : S_TEXT/UTF8
Codec ID/Info : UTF-8 Plain Text
Language : Russian
Default : No
Forced : No

Text #3
ID : 6
Format : UTF-8
Codec ID : S_TEXT/UTF8
Codec ID/Info : UTF-8 Plain Text
Language : Ukrainian
Default : No
Forced : No

Text #4
ID : 7
Format : UTF-8
Codec ID : S_TEXT/UTF8
Codec ID/Info : UTF-8 Plain Text
Language : English
Default : No
Forced : No

Text #5
ID : 8
Format : UTF-8
Codec ID : S_TEXT/UTF8
Codec ID/Info : UTF-8 Plain Text
Title : SDH
Language : English
Default : No
Forced : No

Text #6
ID : 9
Format : UTF-8
Codec ID : S_TEXT/UTF8
Codec ID/Info : UTF-8 Plain Text
Title : SDH-COLORED
Language : English
Default : No
Forced : No

Menu
00:00:00.000 : en:00:00:00.000
00:04:30.562 : en:00:04:30.562
00:07:24.402 : en:00:07:24.402
00:13:48.619 : en:00:13:48.619
00:18:24.103 : en:00:18:24.103
00:23:11.473 : en:00:23:11.473
00:28:13.859 : en:00:28:13.859
00:31:33.266 : en:00:31:33.266
00:35:42.182 : en:00:35:42.182
00:39:28.741 : en:00:39:28.741
00:44:37.508 : en:00:44:37.508
00:47:53.120 : en:00:47:53.120
00:50:33.447 : en:00:50:33.447
00:56:02.234 : en:00:56:02.234
01:00:20.283 : en:01:00:20.283
01:03:35.729 : en:01:03:35.729
01:07:09.776 : en:01:07:09.776
01:11:09.891 : en:01:11:09.891
01:16:01.807 : en:01:16:01.807
01:19:27.096 : en:01:19:27.096
pb.wtf



Скачать Судная ночь через торрент http://i1.imageban.ru/out/2013/10/09/57ec9ec401e6204b083345e9c5687c60.png Скачать фильм Судная ночь через торрент бесплантно в хорошем качестве Описание: Мир будущего - мир без преступности... безработицы... войн. И все это благодаря одной ночи в году, когда можно отправить на тот ... 9.8 10 32
Info! Золотая раздача, скачанное не засчитывается.
Торрент: Зарегистрирован [2013-10-09 09:16] · скачан: 846 раз
Статус: √ проверено
Размер: 9.4 GB
Как cкачать? Как скачать Судная ночь через торрент | qTorrent

% Раздел Тема Автор DL S | L
Фильмы (HD 720p, 1080p) (48-60 fps) [ 2.86 GB ] Судная ночь / The Purge [2013 BDRip - HEVC 1080p 10 bit 60 FPS] dd2d3 Скачать
1 | 1
Зарубежные сериалы [ 27.69 GB ] Судная ночь / The Purge / Сезон 2 / Серии 1-10 из 10 [2019 WEB-DL 1080p] MVO [TVShows] bober100 Скачать
1 | 0
Зарубежные сериалы [ 7.01 GB ] Судная ночь / The Purge / Сезон: 2 / Серии: 1-10 из 10 [2019 WEB-DLRip] MVO [TVShows] bober100 Скачать
1 | 0
Зарубежные сериалы [ 28.03 GB ] Судная ночь / The Purge / Сезон: 2 / Серии: 1-10 из 10 [2019 WEB-DL 1080p] MVO [Пифагор] bober100 Скачать
1 | 0
Зарубежные сериалы [ 13.85 GB ] Судная ночь / The Purge / Сезон: 2 / Серии: 1-10 из 10 [2019 WEB-DL 720p] MVO [TVShows] bober100 Скачать
1 | 0
Зарубежные сериалы [ 1.17 GB ] Судная ночь / The Purge / Сезон 2 / Серии 1- из 10 [2019 WEB-DL 720p] MVO [AlexFilm] bober100 Скачать
1 | 0
Зарубежные сериалы [ 4.89 GB ] Судная ночь / The Purge / Сезон: 2 / Серии: 1-10 из 10 [2019 WEB-DLRip] MVO [Jaskier] bober100 Скачать
1 | 0

28-11-2019 20:33  

Отключить всю рекламу на сайте

09-10-2013 09:33 Судная ночь Скачать торрент  

фильм зачетныйpb.wtf



14-10-2013 09:08 Судная ночь Скачать торрент  

Сделайте 720, пожалуйстаpb.wtf



04-08-2014 04:39 Судная ночь Скачать торрент  

отличный фильмpb.wtf



29-11-2016 16:27 Судная ночь Скачать торрент  

Дайте джазу то, а то уже неделю на месте стою =(pb.wtf



    Дорогой пользователь! Огромная просьба, поблагодарите релизера, оцените раздачу и оставьте свои комментарий, если Вы скачали Судная ночь через торрент бесплатно! Внесите свою лепту в развитие PiratBit!
    Комментировать посты могут только пользователи прошедшие не сложную регистрацию
    Показать сообщения:    

    Судная ночь через торрент
    Скачать бесплатно Судная ночь
    Судная ночь скачать торрент
    Судная ночь смотреть онлайн
    Cкачать фильм Судная ночь бесплатно
    Судная ночь скачать торрент в хорошем качестве
    Судная ночь смотреть онлайн бесплатно в хорошем качестве


    Вы не можете начинать темы
    Вы не можете отвечать на сообщения
    Вы не можете редактировать свои сообщения
    Вы не можете удалять свои сообщения
    Вы не можете голосовать в опросах
    Вы не можете прикреплять файлы к сообщениям
    Вы можете скачивать файлы