Ссылка на приватное зеркало нашего сайта всего за 1$. Внимание количество ограничено!!!

2 сезон

iTunes

1 сезон

1

2 сезон

2 сезон

iTunes

1 сезон

RePack

30

Ultimate

ВАЖНО

ИГРА 18+

pack

RePack

MK11
pack

Забери бонус

RePack

jed

!!Акция!!

Alien_Rage

RePack

fifa19

RePack

Assassins Creed: Odyssey

RePack

NEED FOR SPEED™ PAYBACK

4 сезон

9 сезон

Бесстыжие 9 сезон

Все сериалы

все сериалы на PB.wtf

RePack

FAR CRY 5
  

Любовницы / Mistresses (US) / Сезон: 1 / Серии: 1-13 из 13 (Константин Макрис, Чери Ноулан, Дэвид Пэймер) [2013, драма, триллер, WEB-DL 720p] Dub (Fox Life) + Original pb.wtf

Любовницы через торрент pb.wtf

Размер: 18.11 GB | Добавлен: 7 лет назад | Торрент скачан:186 раз
Скачать  

09-10-2013 15:16 Любовницы Скачать торрент  


Любовницы / MistressesГод выпуска: 2013
Страна: США, ABC
Жанр: драма
Продолжительность: 00:43:08
Перевод: Профессиональный (полное дублирование) Fox Life
Субтитры: Нет
Режиссер: Чери Ноулан / Cherie Nowlan, Джон Скотт / John Scott
В ролях: Алисса Милано (Savannah «Savi» Davis), Ким Юн Джин (Karen Kim), Рошелль Эйтс (April Malloy), Джесс Макаллан (Josslyn Carver), Бретт Такер (Harry Davis), Джейсон Уинстон Джордж (Dominic Taylor), Эрик Стоклин (Sam Grey), Корина Мессиа (Lucy), Камерон Бендер (Richard), Пенелопа Энн Миллер (Elizabeth Grey), Шаннин Соссамон (Alex), Майк Допуд (Olivier Dubois)
Описание:
В центре сюжета находится жизнь четырёх подруг, каждая из которой находится в сложных и опасных отношениях.
Американский драматический телесериал, разработанный К. Й. Стейнберг и основанный на одноименном британском телесериале 2008—2010 годов.
Рейтинг
kinopoisk.ru: 7.143 (315)
imdb.com: 6.30 (3064)
Качество: WEB-DL 720p
Формат: MKV
Видео кодек: XviD
Аудио кодек: AC3
Видео: AVC, 1280x720 (16:9), 3889 kbps, 23,976 fps, 0,176 bpp
Аудио: Russian, AC3, 192 kbps, 48 kHz, 2 ch |Fox Life|
Аудио 2: English, AC3, 384 kbps, 48 kHz, 6 ch |Original|

Оформление: Messa-fan

General
Unique ID : 247724450402807000234413626584363573342 (0xBA5DFE630ACC048DADCC069E370E205E)
Complete name : F:Раздачи | Mistresses Season 1 720p DUB (Fox Life) | Mistresses.s01e01.WEBDL.720p.NewStudio.TV.mkv
Format : Matroska
Format version : Version 2
File size : 1.37 GiB
Duration : 43mn 8s
Overall bit rate : 4 556 Kbps
Encoded date : UTC 2013-09-02 17:57:15
Writing application : mkvmerge v2.9.9 ('Tutu') built on Nov 25 2009 21:13:32
Writing library : libebml v0.7.9 + libmatroska v0.8.1

Video
ID : 1
Format : AVC
Format/Info : Advanced Video Codec
Format profile : High@L3.1
Format settings, CABAC : No
Format settings, ReFrames : 2 frames
Codec ID : V_MPEG4/ISO/AVC
Duration : 43mn 8s
Bit rate : 3 889 Kbps
Width : 1 280 pixels
Height : 720 pixels
Display aspect ratio : 16:9
Frame rate : 23.976 fps
Color space : YUV
Chroma subsampling : 4:2:0
Bit depth : 8 bits
Scan type : Progressive
Bits/(Pixel*Frame) : 0.176
Stream size : 1.17 GiB (85%)
Language : English
Default : No
Forced : No
Color primaries : BT.709-5, BT.1361, IEC 61966-2-4, SMPTE RP177
Transfer characteristics : BT.709-5, BT.1361
Matrix coefficients : BT.709-5, BT.1361, IEC 61966-2-4 709, SMPTE RP177

Audio #1
ID : 2
Format : AC-3
Format/Info : Audio Coding 3
Mode extension : CM (complete main)
Codec ID : A_AC3
Duration : 43mn 8s
Bit rate mode : Constant
Bit rate : 192 Kbps
Channel(s) : 2 channels
Channel positions : Front: L R
Sampling rate : 48.0 KHz
Bit depth : 16 bits
Compression mode : Lossy
Stream size : 59.3 MiB (4%)
Language : Russian
Default : Yes
Forced : Yes

Audio #2
ID : 3
Format : AC-3
Format/Info : Audio Coding 3
Mode extension : CM (complete main)
Codec ID : A_AC3
Duration : 43mn 8s
Bit rate mode : Constant
Bit rate : 384 Kbps
Channel(s) : 6 channels
Channel positions : Front: L C R, Side: L R, LFE
Sampling rate : 48.0 KHz
Bit depth : 16 bits
Compression mode : Lossy
Stream size : 119 MiB (8%)
Language : English
Default : No
Forced : No

Внимание! Раздача ведётся путём добавления новых серий; при каждом добавлении создётся новый торрент. Чтобы начать докачку новой серии, пользователям необходимо сделать следующее:
(1) остановить скачивание,
(2) удалить старый торрент у себя из клиента (старые серии удалять не надо),
(3) скачать новый торрент и запустить его у себя в клиенте вместо старого, при этом указать клиенту путь в старую папку куда и должно происходить скачивание новых серий.

Ваш клиент при этом должен произвести хеширование (проверку) старой папки (если не производит сам - помогите ему сделать это), и будет докачивать только те серии которых у вас ещё нет. Старые серии при этом не удаляются, а продолжают раздаваться!

Eсли вы уже удалили старые серии, то предотвратить повторную закачку старых серий можно, отжав галочку в соответсвующих местах при запуске нового торрента. По возможности, желательно не удалять старые серии как можно дольше чтобы релизёр не столько продолжал раздавать старые серии, а смог сконцентрироваться на новых.
Раздача с открытым DHT - сиды есть всегда. Добавлена 13 серия!
Сезон окончен! Продолжение летом 2014г.

pb.wtf



Скачать Любовницы через торрент http://i2.imageban.ru/out/2013/10/09/9dc163f25265f9c31193be254298109c.png Скачать фильм Любовницы через торрент бесплантно в хорошем качестве Описание: В центре сюжета находится жизнь четырёх подруг, каждая из которой находится в сложных и опасных отношениях. Американский ... 8.5 10 17
Info! Золотая раздача, скачанное не засчитывается.
Торрент: Зарегистрирован [2013-11-26 11:46] · скачан: 186 раз
Статус: √ проверено
Размер: 18.11 GB
Как cкачать? Как скачать Любовницы через торрент | qTorrent

% Раздел Тема Автор DL S | L
Зарубежные сериалы [ 1.95 GB ] Любовницы / Mistresses Сезон: 1 / Серии: 1-4 из 13 [2013 WEB-DLRip] Dub +Original Assasinca Скачать
1 | 0


Последний раз редактировалось: Messa-fan (2013-11-26 11:46), всего редактировалось 7 раз(а)

28-11-2019 20:33  

Отключить всю рекламу на сайте

15-10-2013 09:40 Любовницы Скачать торрент  

Добавлена 7 серия!
pb.wtf



22-10-2013 10:59 Любовницы Скачать торрент  

Добавлена 8 серия!
pb.wtf



29-10-2013 12:47 Любовницы Скачать торрент  

Добавлена 9 серия!
pb.wtf



29-10-2013 16:08 Любовницы Скачать торрент  

как сериал? стоит тратить время?pb.wtf



05-11-2013 11:12 Любовницы Скачать торрент  

Добавлена 10 серия!
pb.wtf



12-11-2013 16:52 Любовницы Скачать торрент  

Добавлена 11 серия!
pb.wtf



19-11-2013 12:19 Любовницы Скачать торрент  

Добавлена 12 серия!
pb.wtf



19-11-2013 14:22 Любовницы Скачать торрент  

pb.wtf



26-11-2013 11:47 Любовницы Скачать торрент  

Добавлена 13 серия!
Сезон окончен! Продолжение летом 2014г.

pb.wtf



10-05-2016 17:13 Любовницы Скачать торрент  

Раздайте плизpb.wtf



    Дорогой пользователь! Огромная просьба, поблагодарите релизера, оцените раздачу и оставьте свои комментарий, если Вы скачали Любовницы через торрент бесплатно! Внесите свою лепту в развитие PiratBit!
    Комментировать посты могут только пользователи прошедшие не сложную регистрацию
    Показать сообщения:    

    Любовницы через торрент
    Скачать бесплатно Любовницы
    Любовницы скачать торрент
    Любовницы смотреть онлайн
    Cкачать фильм Любовницы бесплатно
    Любовницы скачать торрент в хорошем качестве
    Любовницы смотреть онлайн бесплатно в хорошем качестве


    Вы не можете начинать темы
    Вы не можете отвечать на сообщения
    Вы не можете редактировать свои сообщения
    Вы не можете удалять свои сообщения
    Вы не можете голосовать в опросах
    Вы не можете прикреплять файлы к сообщениям
    Вы можете скачивать файлы