Ссылка на приватное зеркало нашего сайта всего за 1$. Внимание количество ограничено!!!

2 сезон

iTunes

1 сезон

1

iTunes

iTunes

iTunes

1 сезон

RePack

30

ИГРА 18+

pack

ВАЖНО

!!Акция!!

Alien_RageХит недели

RePack

MK11
pack

Забери бонус

RePack

jed

!!Акция!!

Alien_Rage

RePack

fifa19

RePack

Assassins Creed: Odyssey

RePack

NEED FOR SPEED™ PAYBACK

4 сезон

9 сезон

Бесстыжие 9 сезон

Все сериалы

все сериалы на PB.wtf

RePack

FAR CRY 5
  

Студия 17 (Сергей Сенцов, Александр Наумов) [2013 г., комедия, Серии 16 из ??, SATRip] pb.wtf

Студия 17 через торрент pb.wtf

Размер: 4.5 GB | Добавлен: 7 лет назад | Торрент скачан:45 раз
Скачать  

09-10-2013 16:54 Студия 17 Скачать торрент  

Студия 17 Год выпуска: 2013.
Страна: Россия.
Жанр: комедия.
Продолжительность: ~00:25:00

Режиссер: Сергей Сенцов Александр Наумов
Продюссер: Максим Уханов, Александр Дулерайн, Валерий Федорович
Сценарий: Евгений Никишов, Валерий Федорович, Петр Буслов

Премьера в России: 30 сентября 2013

Зрителям, достигшим 16 лет
Кинопоиск: 5.255 (281)

В ролях:
Александр Дмитриев, Федор Леонов, Евгений Викторенков, Роман Рипко, Мария Дорогова, Анастасия Клюева, Лукерья Ильяшенко, Александр Головко, Валерий Сотов, Александр Молочников.


Описание:
Они хотят успеха, денег и женщин. Но все, что у них есть сейчас, это старая автомойка, которую они решают переделать под видеостудию. Свобода, дружба, любовь и общий бизнес — мечты сбываются, когда тебе 20 и вся жизнь впереди!


Качество: SATRip
Формат: AVI
Видео кодек: DivX
Аудио кодек: MP3
Видео: 720x400 (16/9), 25.000 fps, ~1501 Kbps, (0.208 bit/pixel)
Аудио#1: 48.0 KHz, 1 ch, 128 Kbps

Внимание! Раздача ведётся путём добавления новых серий; при каждом добавлении создётся новый торрент. Чтобы начать докачку новой серии, пользователям необходимо сделать следующее:
Остановить скачивание,
Удалить старый торрент у себя из клиента (старые серии удалять не надо),
Скачать новый торрент и запустить его у себя в клиенте вместо старого, при этом указать клиенту путь в старую папку куда и должно происходить скачивание новых серий.
Ваш клиент при этом должен произвести хеширование (проверку) старой папки (если не производит сам - помогите ему сделать это), и будет докачивать только те серии которых у вас ещё нет. Старые серии при этом не удаляются, а продолжают раздаваться!

Eсли вы уже удалили старые серии, то предотвратить повторную закачку старых серий можно, отжав галочку в соответсвующих местах при запуске нового торрента. По возможности, желательно не удалять старые серии как можно дольше чтобы релизёр не столько продолжал раздавать старые серии, а смог сконцентрироваться на новых.




Формат : AVI
Формат/Информация : Audio Video Interleave
Размер файла : 485 Мбайт
Продолжительность : 41 м.
Общий поток : 1639 Кбит/сек
Библиотека кодирования : VirtualDub build 32842/release

Видео
Идентификатор : 0
Формат : MPEG-4 Visual
Параметр BVOP формата : Да
Параметр QPel формата : Нет
Параметр GMC формата : Без точки перехода
Параметр матрицы формата : Default (H.263)
Идентификатор кодека : DX50
Идентификатор кодека/Подсказка : DivX 5
Продолжительность : 41 м.
Битрейт : 1501 Кбит/сек
Ширина : 720 пикселей
Высота : 400 пикселей
Соотношение сторон : 16:9
Частота кадров : 25,000 кадров/сек
Цветовое пространство : YUV
Субдискретизация насыщенности : 4:2:0
Битовая глубина : 8 бит
Тип развёртки : Прогрессивная
Метод сжатия : С потерями
Бит/(Пиксели*Кадры) : 0.208
Размер потока : 444 Мбайт (92%)
Библиотека кодирования : DivX 6.8.5 (UTC 2009-08-20)

Аудио
Идентификатор : 1
Формат : MPEG Audio
Версия формата : Version 1
Профиль формата : Layer 3
Идентификатор кодека : 55
Идентификатор кодека/Подсказка : MP3
Продолжительность : 41 м.
Вид битрейта : Постоянный
Битрейт : 128 Кбит/сек
Каналы : 1 канал
Частота : 48,0 КГц
Метод сжатия : С потерями
Размер потока : 37,9 Мбайт (8%)
Выравнивание : Разделение по промежуткам
Продолжительность промежутка : 40 мс. (1,00 видеокадр)
Время предзагрузки промежутка : 500 мс.

pb.wtf



Скачать Студия 17 через торрент http://pic.kartinco.top/images/4/zup3a.jpg Скачать фильм Студия 17 через торрент бесплантно в хорошем качестве Описание: Они хотят успеха, денег и женщин. Но все, что у них есть сейчас, это старая автомойка, которую они решают переделать под ... 9.2 10 13
Info! Золотая раздача, скачанное не засчитывается.
Торрент: Зарегистрирован [2013-10-24 14:49] · скачан: 45 раз
Статус: √ проверено
Размер: 4.5 GB
Как cкачать? Как скачать Студия 17 через торрент | qTorrent

% Раздел Тема Автор DL S | L
Фильмы (WEB-DL 720p, 1080p) [ 1.84 GB ] Короткометражки от студии Oats Studios / Oats Studios [2017 WEBRip 1080p] [MVO] killermax2013 Скачать
3 | 0
Фильмы [HD 720p, 1080p] (Хороший звук DUB, MVO) [ 9.73 GB ] Амели бежит / Amelie rennt [2017 BDRip 1080p] MVO [СВ Студия] bober100 Скачать
1 | 0
Фильмы [HD 720p, 1080p] (Хороший звук DUB, MVO) [ 4.59 GB ] Амели бежит / Amelie rennt [2017 BDRip 720p] MVO [СВ Студия] bober100 Скачать
1 | 0
Фильмы 2017 [DVDrip, WEB-DLRip, HDrip] (DUB, MVO) [ 1.47 GB ] Побег Амели / Амели бежит / Amelie rennt [2017 BDRip] [MVO] killermax2013 Скачать
1 | 0
Фильмы (Blu-ray, BD-Remux, HDDVD) [ 19.71 GB ] Побег Амели / Амели бежит / Amelie rennt [2017 BDRemux 1080p] [MVO] killermax2013 Скачать
1 | 0
Фильмы 2017 [DVDrip, WEB-DLRip, HDrip] (DUB, MVO) [ 705 MB ] Амели бежит / Amelie rennt [2017 HDRip многоголосый закадровый "СВ Студия"] coc900 Скачать
1 | 0
Военное дело [ 8.09 GB ] Мир Гитлера: послевоенные планы / Hitler's Empire: The Post War Plan [01-06 из 06] [2017 Документальный HDTVRip 720p] [студия SDI-Media] Armstrong Скачать
1 | 0


Последний раз редактировалось: Fantomas94 (2013-10-24 14:49), всего редактировалось 13 раз(а)

28-11-2019 20:33  

Отключить всю рекламу на сайте

09-10-2013 17:54 Студия 17 Скачать торрент  

вот это спасибоpb.wtf



09-10-2013 17:57 Студия 17 Скачать торрент  

peregarych_11, Пожалста)pb.wtf



10-10-2013 15:47 Студия 17 Скачать торрент  

Добавлена 8 серияpb.wtf



14-10-2013 15:49 Студия 17 Скачать торрент  

Добавлена 9 серияpb.wtf



15-10-2013 15:55 Студия 17 Скачать торрент  

Добавлена 10 серияpb.wtf



17-10-2013 15:16 Студия 17 Скачать торрент  

Добавлена 12 серияpb.wtf



21-10-2013 16:18 Студия 17 Скачать торрент  

Добавлена 13 серияpb.wtf



23-10-2013 17:04 Студия 17 Скачать торрент  

Добавлены 14 и 15 серияpb.wtf



24-10-2013 14:50 Студия 17 Скачать торрент  

Добавлена 16 серияpb.wtf



24-10-2013 18:04 Студия 17 Скачать торрент  

Код:

Качество: SATRip

Цитата:

Studija.17.01.SATRip.avi
Studiya.17.15.seriya.WEBRip.avi
Studiya.17.(10.seriya).2013.DivX.HQWEB-DLRip.Alexey724.avi

Непорядокpb.wtf



    Дорогой пользователь! Огромная просьба, поблагодарите релизера, оцените раздачу и оставьте свои комментарий, если Вы скачали Студия 17 через торрент бесплатно! Внесите свою лепту в развитие PiratBit!
    Комментировать посты могут только пользователи прошедшие не сложную регистрацию
    Показать сообщения:    

    Студия 17 через торрент
    Скачать бесплатно Студия 17
    Студия 17 скачать торрент
    Студия 17 смотреть онлайн
    Cкачать фильм Студия 17 бесплатно
    Студия 17 скачать торрент в хорошем качестве
    Студия 17 смотреть онлайн бесплатно в хорошем качестве


    Вы не можете начинать темы
    Вы не можете отвечать на сообщения
    Вы не можете редактировать свои сообщения
    Вы не можете удалять свои сообщения
    Вы не можете голосовать в опросах
    Вы не можете прикреплять файлы к сообщениям
    Вы можете скачивать файлы