Ссылка на приватное зеркало нашего сайта всего за 1$. Внимание количество ограничено!!!

2 сезон

iTunes

1 сезон

1

iTunes

iTunes

iTunes

1 сезон

RePack

30

ИГРА 18+

pack

ВАЖНО

!!Акция!!

Alien_RageХит недели

RePack

MK11
pack

Забери бонус

RePack

jed

!!Акция!!

Alien_Rage

RePack

fifa19

RePack

Assassins Creed: Odyssey

RePack

NEED FOR SPEED™ PAYBACK

4 сезон

9 сезон

Бесстыжие 9 сезон

Все сериалы

все сериалы на PB.wtf

RePack

FAR CRY 5
  

Икона сезона (Сергей Швыдкой, Фуад Ибрагимбеков) [2013 , Россия , драма, комедия , DVDRip , Original][Лицензия] pb.wtf

Икона сезона через торрент pb.wtf

Размер: 1.37 GB | Добавлен: 7 лет назад | Торрент скачан:1221 раз
Скачать  

10-10-2013 09:13 Икона сезона Скачать торрент  

Икона сезона

Слоган: «Хорошо живёт богема, только...»
Год выпуска: 2013
Страна: Россия
Жанр: драма, комедия
Продолжительность: 01:19:17
Перевод: Оригинальный [Лицензия]


Режиссер: Сергей Швыдкой, Фуад Ибрагимбеков
В ролях: Екатерина Климова (Катя), Евгений Цыганов, Павел Баршак, Александр Ратников, Евгения Осипова, Алексей Барабаш, Юлия Маврина, Кристина Романец, Родион Юрин, Дарья Сазонова, Анжелика Полякова, Мария Фатеева

Описание: В основе фильма - пьеса Ольги Мухиной. Действие происходит в вымышленном городе, который очень напоминает Москву. Герои фильма, среди которых продюсеры, телеведущие, диджеи, много говорят о любви, но не способны почувствовать ее. Они рассуждают о том, чего не понимают. Они обаятельны, успешны и живут в удобном и мягком мире, который качественно соответствует счету на их кредитной карте.
Они ведут активный, но пустой и праздный образ жизни. И в какой-то момент героя начинает одолевать страх, что его скоро не станет. Его уютный мир начинает рушится, обнажая окружающую реальность, которая несет расплату за ошибки прошлого и вместе с тем - новое будущее. И каким оно будет, зависит только от того, сможет ли герой разобраться в себе.

Рейтинг
kinopoisk.ru: 4.848 (94)
Релиз на DVD: 7 октября 2013

  • Качество: DVDRip
  • Формат: AVI
  • Видео кодек: XviD
  • Аудио кодек: AC3
  • Видео: XviD, 720x304 (2.35:1), 2011 kbps, 25 fps, 0,368 bpp
  • Аудио: AC3 / 5.1 / 48 kHz / 448 kbps / 16 bit
    Format : AVI
    Format/Info : Audio Video Interleave
    File size : 1.37 GiB
    Duration : 1h 19mn
    Overall bit rate : 2 470 Kbps
    Writing application : VirtualDubMod 1.5.10.3 | www.virtualdub-fr.org || (build 2550/release)
    Writing library : VirtualDubMod build 2550/release

    Video
    ID : 0
    Format : MPEG-4 Visual
    Format profile : Advanced Simple@L5
    Format settings, BVOP : 2
    Format settings, QPel : No
    Format settings, GMC : No warppoints
    Format settings, Matrix : Default (MPEG)
    Codec ID : XVID
    Codec ID/Hint : XviD
    Duration : 1h 19mn
    Bit rate : 2 012 Kbps
    Width : 720 pixels
    Height : 304 pixels
    Display aspect ratio : 2.35:1
    Frame rate : 25.000 fps
    Color space : YUV
    Chroma subsampling : 4:2:0
    Bit depth : 8 bits
    Scan type : Progressive
    Compression mode : Lossy
    Bits/(Pixel*Frame) : 0.368
    Stream size : 1.11 GiB (81%)
    Writing library : XviD 1.2.1 (UTC 2008-12-04)

    Audio
    ID : 1
    Format : AC-3
    Format/Info : Audio Coding 3
    Mode extension : CM (complete main)
    Codec ID : 2000
    Duration : 1h 19mn
    Bit rate mode : Constant
    Bit rate : 448 Kbps
    Channel(s) : 6 channels
    Channel positions : Front: L C R, Side: L R, LFE
    Sampling rate : 48.0 KHz
    Bit depth : 16 bits
    Compression mode : Lossy
    Stream size : 254 MiB (18%)
    Alignment : Split accross interleaves
    Interleave, duration : 40 ms (1.00 video frame)
    Interleave, preload duration : 500 ms
    pb.wtf



  • Скачать Икона сезона через торрент http://i3.imageban.ru/out/2013/10/10/b726076183051034ec305fe0c9959553.png Скачать фильм Икона сезона через торрент бесплантно в хорошем качестве Описание: В основе фильма - пьеса Ольги Мухиной. Действие происходит в вымышленном городе, который очень напоминает Москву. Герои фильма, ... 9.3 10 36
    Info! Золотая раздача, скачанное не засчитывается.
    Торрент: Зарегистрирован [2013-10-10 09:13] · скачан: 1 221 раз
    Статус: √ проверено
    Размер: 1.37 GB
    Как cкачать? Как скачать Икона сезона через торрент | qTorrent

    % Раздел Тема Автор DL S | L
    Наши фильмы (DVD фильмы) [ 5.2 GB ] Икона сезона [2013 DVD9] R5 voovaz Скачать
    1 | 0
    Наши новые фильмы 2013 [ 704 MB ] Икона сезона [2013 DVDRip] coc900 Скачать
    1 | 0

    28-11-2019 20:33  

    Отключить всю рекламу на сайте

    12-10-2013 09:46 Икона сезона Скачать торрент  

    Отличный фильм.....pb.wtf



    13-10-2013 13:58 Икона сезона Скачать торрент  

    да нету ничего в нем !!!!папа министр культуры бывший вот и снимает бред всякий даже в с хорошимси актерами не получилось киноpb.wtf



    04-11-2013 15:26 Икона сезона Скачать торрент  

    фильм лажа(pb.wtf



    22-11-2013 21:52 Икона сезона Скачать торрент  

    фильм шляпа!pb.wtf



    30-11-2013 16:18 Икона сезона Скачать торрент  

    Хрень редкосная !pb.wtf



    01-12-2013 11:05 Икона сезона Скачать торрент  

    это просто бредятина какая-то, не умеют наши снимать так лучше бы и не бралисьpb.wtf



    05-12-2013 05:10 Икона сезона Скачать торрент  

    бредятина(((pb.wtf



      Дорогой пользователь! Огромная просьба, поблагодарите релизера, оцените раздачу и оставьте свои комментарий, если Вы скачали Икона сезона через торрент бесплатно! Внесите свою лепту в развитие PiratBit!
      Комментировать посты могут только пользователи прошедшие не сложную регистрацию
      Показать сообщения:    

      Икона сезона через торрент
      Скачать бесплатно Икона сезона
      Икона сезона скачать торрент
      Икона сезона смотреть онлайн
      Cкачать фильм Икона сезона бесплатно
      Икона сезона скачать торрент в хорошем качестве
      Икона сезона смотреть онлайн бесплатно в хорошем качестве


      Вы не можете начинать темы
      Вы не можете отвечать на сообщения
      Вы не можете редактировать свои сообщения
      Вы не можете удалять свои сообщения
      Вы не можете голосовать в опросах
      Вы не можете прикреплять файлы к сообщениям
      Вы можете скачивать файлы