2 сезон

iTunes

1 сезон

1

iTunes

iTunes

iTunes

1 сезон

RePack

30

ИГРА 18+

pack

ВАЖНО

!!Акция!!

Alien_RageХит недели

RePack

MK11
pack

Забери бонус

RePack

jed

!!Акция!!

Alien_Rage

RePack

fifa19

RePack

Assassins Creed: Odyssey

RePack

NEED FOR SPEED™ PAYBACK

4 сезон

9 сезон

Бесстыжие 9 сезон

Все сериалы

все сериалы на PB.wtf

RePack

FAR CRY 5
  

Мисс Конгениальность 2: Прекрасна и опасна / Miss Congeniality 2: Armed & Fabulous (Джон Пасквин) [2005 г., Боевик, комедия, криминал, BDRip 1080p, Дубляж] pb.wtf

Мисс Конгениальность 2: Прекрасна и опасна через торрент pb.wtf

Размер: 7.95 GB | Добавлен: 7 лет назад | Торрент скачан:37 раз
Скачать  

10-10-2013 14:53 Мисс Конгениальность 2: Прекрасна и опасна Скачать торрент  

Мисс Конгениальность 2: Прекрасна и опасна / Miss Congeniality 2: Armed & Fabulous
Год выпуска: 2005
Страна: США
Жанр: Боевик, комедия, криминал,
Продолжительность: 01:55:21
Перевод: Дубляж+Профессиональный (двухголосый закадровый)+оригинал
Субтитры: русские , английские

Режиссер: Джон Пасквин

В ролях: Сандра Буллок, Реджина Кинг, Энрике Мурсиано, Уильям Шетнер, Эрни Хадсон, Хезер Бёрнс, Дидрих Бадер, Трит Уильямс, Абрахам Бенруби, Ник Офферман,

Описание: События начинают разворачиваться вскоре после того, как агент ФБР Грейси Харт под видом одной из конкурсанток успешно справляется с важным заданием на конкурсе красоты «Мисс Америка». После своих геройских подвигов, сделавших ее звездой телевидения и прессы, Грейси начинает уделять все меньше времени оперативной работе, занимаясь написанием книги и съемками в различных телешоу.
Когда же выясняется, что ее друзей — победительницу конкурса красоты Шерил и импресарио Стэна — похищают в Лас-Вегасе, попытки Грейси вернуться на проторенную стезю и спасти друзей приводят к конфликту с руководством ФБР, которое не хочет терять визитную карточку своей организации в её лице, опасаясь, что она может провалить операцию…

Качество: BDRip 1080p
Формат: MKV
Видео кодек: H.264
Аудио кодек: AC3
Видео: (1920x1798),9042 Кбит/с, 23.976 кадра/сек
Аудио#1: AC-3, 6 ch, 448 kbps (Rus) 48.0 KHz Дубляж
Аудио#2: AC-3, 6 ch, 448 kbps (Rus) 48.0 KHz Профессиональный (двухголосый закадровый)
Аудио#3: AC-3, 6 ch, 640 kbps (Eng) 48.0 KHz Оригинал
скриншот   скриншот   скриншот  

General
Unique ID : 251623840182881686055724199258275008925 (0xBD4CFD25783D3657920C5BF2F851519D)
Complete name : E:Miss.Congeniality.Dilogy.2000-2005.x264.BDRip.1080pMiss.Congeniality.2.Armed.&.Fabulous.2005.x264.BDRip.1080pMiss.Congeniality.2.Armed.&.Fabulous.2005.x264.BDRip.1080p.mkv
Format : Matroska
Format version : Version 4 / Version 2
File size : 7.95 GiB
Duration : 1h 55mn
Overall bit rate : 9 867 Kbps
Encoded date : UTC 2013-07-22 06:14:41
Writing application : mkvmerge v6.2.0 ('Promised Land') built on Apr 28 2013 12:22:01
Writing library : libebml v1.3.0 + libmatroska v1.4.0

Video
ID : 1
Format : AVC
Format/Info : Advanced Video Codec
Format profile : High@L4.1
Format settings, CABAC : Yes
Format settings, ReFrames : 5 frames
Codec ID : V_MPEG4/ISO/AVC
Duration : 1h 55mn
Bit rate : 8 332 Kbps
Width : 1 920 pixels
Height : 798 pixels
Display aspect ratio : 2.40:1
Frame rate mode : Constant
Frame rate : 23.976 fps
Color space : YUV
Chroma subsampling : 4:2:0
Bit depth : 8 bits
Scan type : Progressive
Bits/(Pixel*Frame) : 0.227
Stream size : 6.55 GiB (82%)
Writing library : x264 core 135 r2345 f0c1c53
Encoding settings : cabac=1 / ref=5 / deblock=1:-3:-3 / analyse=0x3:0x133 / me=tesa / subme=11 / psy=1 / psy_rd=1.00:0.10 / mixed_ref=1 / me_range=32 / chroma_me=1 / trellis=2 / 8x8dct=1 / cqm=0 / deadzone=21,11 / fast_pskip=0 / chroma_qp_offset=-3 / threads=12 / lookahead_threads=1 / sliced_threads=0 / nr=0 / decimate=0 / interlaced=0 / bluray_compat=0 / constrained_intra=0 / bframes=3 / b_pyramid=2 / b_adapt=2 / b_bias=0 / direct=3 / weightb=1 / open_gop=0 / weightp=2 / keyint=240 / keyint_min=23 / scenecut=40 / intra_refresh=0 / rc=2pass / mbtree=0 / bitrate=8332 / ratetol=1.0 / qcomp=0.60 / qpmin=0 / qpmax=69 / qpstep=4 / cplxblur=20.0 / qblur=0.5 / ip_ratio=1.40 / pb_ratio=1.30 / aq=1:1.00
Language : English
Default : Yes
Forced : No

Audio #1
ID : 2
Format : AC-3
Format/Info : Audio Coding 3
Mode extension : CM (complete main)
Format settings, Endianness : Big
Codec ID : A_AC3
Duration : 1h 55mn
Bit rate mode : Constant
Bit rate : 448 Kbps
Channel(s) : 6 channels
Channel positions : Front: L C R, Side: L R, LFE
Sampling rate : 48.0 KHz
Bit depth : 16 bits
Compression mode : Lossy
Stream size : 370 MiB (5%)
Title : AC3 5.1ch 448 kbps - Дубляж
Language : Russian
Default : Yes
Forced : No

Audio #2
ID : 3
Format : AC-3
Format/Info : Audio Coding 3
Mode extension : CM (complete main)
Format settings, Endianness : Big
Codec ID : A_AC3
Duration : 1h 55mn
Bit rate mode : Constant
Bit rate : 448 Kbps
Channel(s) : 6 channels
Channel positions : Front: L C R, Side: L R, LFE
Sampling rate : 48.0 KHz
Bit depth : 16 bits
Compression mode : Lossy
Stream size : 370 MiB (5%)
Title : AC3 5.1ch 448 kbps - Двухголосый, Тусооn-Studiо
Language : Russian
Default : No
Forced : No

Audio #3
ID : 4
Format : AC-3
Format/Info : Audio Coding 3
Mode extension : CM (complete main)
Format settings, Endianness : Big
Codec ID : A_AC3
Duration : 1h 55mn
Bit rate mode : Constant
Bit rate : 640 Kbps
Channel(s) : 6 channels
Channel positions : Front: L C R, Side: L R, LFE
Sampling rate : 48.0 KHz
Bit depth : 16 bits
Compression mode : Lossy
Stream size : 528 MiB (6%)
Title : AC3 5.1ch 640 kbps - Английский
Language : English
Default : No
Forced : No

Text #1
ID : 5
Format : UTF-8
Codec ID : S_TEXT/UTF8
Codec ID/Info : UTF-8 Plain Text
Title : Русские
Language : Russian
Default : No
Forced : No

Text #2
ID : 6
Format : UTF-8
Codec ID : S_TEXT/UTF8
Codec ID/Info : UTF-8 Plain Text
Title : Английские
Language : English
Default : No
Forced : No

Menu
00:00:00.000 : en:
00:05:00.000 : en:
00:10:00.000 : en:
00:15:00.000 : en:
00:20:00.000 : en:
00:25:00.000 : en:
00:30:00.000 : en:
00:35:00.000 : en:
00:40:00.000 : en:
00:45:00.000 : en:
00:50:00.000 : en:
00:55:00.000 : en:
01:00:00.000 : en:
01:05:00.000 : en:
01:10:00.000 : en:
01:15:00.000 : en:
01:20:00.000 : en:
01:25:00.000 : en:
01:30:00.000 : en:
01:35:00.000 : en:
01:40:00.000 : en:
01:45:00.000 : en:
01:50:00.000 : en:
01:55:00.000 : en:

pb.wtf



Скачать Мисс Конгениальность 2: Прекрасна и опасна через торрент http://pic.kartinco.top/images/4/eplyb.jpg Скачать фильм Мисс Конгениальность 2: Прекрасна и опасна через торрент бесплантно в хорошем качестве Описание: События начинают разворачиваться вскоре после того, как агент ФБР Грейси Харт под видом одной из конкурсанток успешно справляется ... 10 10 4
Info! Золотая раздача, скачанное не засчитывается.
Торрент: Зарегистрирован [2013-10-10 14:53] · скачан: 37 раз
Статус: √ проверено
Размер: 7.95 GB
Как cкачать? Как скачать Мисс Конгениальность 2: Прекрасна и опасна через торрент | qTorrent

28-11-2019 20:33  

Отключить всю рекламу на сайте

    Дорогой пользователь! Огромная просьба, поблагодарите релизера, оцените раздачу и оставьте свои комментарий, если Вы скачали Мисс Конгениальность 2: Прекрасна и опасна через торрент бесплатно! Внесите свою лепту в развитие PiratBit!
    Комментировать посты могут только пользователи прошедшие не сложную регистрацию
    Показать сообщения:    

    Мисс Конгениальность 2: Прекрасна и опасна через торрент
    Скачать бесплатно Мисс Конгениальность 2: Прекрасна и опасна
    Мисс Конгениальность 2: Прекрасна и опасна скачать торрент
    Мисс Конгениальность 2: Прекрасна и опасна смотреть онлайн
    Cкачать фильм Мисс Конгениальность 2: Прекрасна и опасна бесплатно
    Мисс Конгениальность 2: Прекрасна и опасна скачать торрент в хорошем качестве
    Мисс Конгениальность 2: Прекрасна и опасна смотреть онлайн бесплатно в хорошем качестве


    Вы не можете начинать темы
    Вы не можете отвечать на сообщения
    Вы не можете редактировать свои сообщения
    Вы не можете удалять свои сообщения
    Вы не можете голосовать в опросах
    Вы не можете прикреплять файлы к сообщениям
    Вы можете скачивать файлы