2 сезон

iTunes

MVO

1

2 сезон

iTunes

iTunes

1 сезон

RePack

30

Ultimate

ВАЖНО

ИГРА 18+

pack

RePack

MK11
pack

Легкие деньги

RePack

jed

RePack

fifa19

RePack

RDR2

RePack

NEED FOR SPEED™ PAYBACK

4 сезон

9 сезон

Бесстыжие 9 сезон

Все сериалы

все сериалы на PB.wtf

RePack

FAR CRY 5

Anonymous, доброй ночи, мы не успеваем собрать деньги на оплату серверов за декабрь и январь, помогите нам пожалуйста в это трудное время. В качестве благодарности мы отключим Вам всю рекламу на сайте (укажите свой ник в строку Ваше имя)!

×
  
Magnet ссылка

Властелин любви / The Look of Love (Рейнир Лингдаль / Reynir Lyngdal) [2013 г., Драма, Комедия, Биография, DVDRip-AVC, Профессиональный (Дублированный)] pb.wtf

Властелин любви через торрент pb.wtf

Размер: 1.74 GB | Добавлен: 7 лет 3 мес. назад | Торрент скачан:201 раз
Скачать  

11-10-2013 06:15 Властелин любви Скачать торрент  

Властелин любви / The Look of Love
Информация:
Год выхода: 2013
Страна: США, Великобритания
Киностудия: Baby Cow Films, Film Four Ltd....
Жанр: Драма, Комедия, Биография
Продолжительность: 01:36:58
Перевод: Профессиональный (Дублированный)
Режиссёр: Рейнир Лингдаль / Reynir Lyngdal
В ролях:Стив Куган, Анна Фрил, Имоджен Путс, Тэмсин Эгертон, Крис Эддисон, Джеймс Лэнс, Ширли Хендерсон, Дэвид Уоллиамс, Мэтт Лукас, Саймон Бёрд....
Описание:
Пауль Раймонд был прозван в прессе «Королём Сохо» из-за принадлежащего ему огромного клуба и невероятного количества недвижимого имущества, что наряду с его порнобизнесом принесло ему состояние в миллиарды фунтов.
Тех.Данные:
Качество: DVDRip-AVC | DVD5 R5 | Автор рипа: XLASER
Формат: MKV
Видео кодек: AVC
Аудио кодек: AC-3
Видео: AVC at 2216 Кбит/сек 720 x 400 (1.800) at 25.000 fps
Аудио: AC-3 at 384 Кбит/сек 6 каналов, 48,0 КГц


Код:

Формат                                   : Matroska
Версия формата                           : Version 2
Размер файла                             : 1,74 Гбайт
Продолжительность                        : 1 ч. 36 м.
Общий поток                              : 2574 Кбит/сек
Дата кодирования                         : UTC 2013-10-09 10:52:11
Программа кодирования                    : mkvmerge v2.9.8 ('C'est le bon') built on Nov 20 2009 13:01:15
Библиотека кодирования                   : libebml v0.7.9 + libmatroska v0.8.1

Видео
Идентификатор                            : 1
Формат                                   : AVC
Формат/Информация                        : Advanced Video Codec
Профиль формата                          : High@L3.1
Параметр CABAC формата                   : Да
Параметр ReFrames формата                : 8 кадров
Идентификатор кодека                     : V_MPEG4/ISO/AVC
Продолжительность                        : 1 ч. 36 м.
Битрейт                                  : 2216 Кбит/сек
Ширина                                   : 720 пикселей
Высота                                   : 400 пикселей
Соотношение сторон                       : 16:9
Режим частоты кадров                     : Постоянный
Частота кадров                           : 25,000 кадров/сек
Цветовое пространство                    : YUV
Субдискретизация насыщенности            : 4:2:0
Битовая глубина                          : 8 бит
Тип развёртки                            : Прогрессивная
Бит/(Пиксели*Кадры)                      : 0.308
Размер потока                            : 1,45 Гбайт (83%)
Библиотека кодирования                   : x264 core 79 r1342kMod e8501ef
Настройки программы                      : cabac=1 / ref=8 / deblock=1:-1:-1 / analyse=0x3:0x133 / me=umh / subme=7 / psy=1 / psy_rd=1.0:0.1 / mixed_ref=1 / me_range=16 / chroma_me=1 / trellis=2 / 8x8dct=1 / cqm=0 / deadzone=21,11 / chroma_qp_offset=-3 / threads=4 / nr=0 / decimate=1 / mbaff=0 / constrained_intra=0 / bframes=3 / b_pyramid=0 / b_adapt=2 / b_bias=0 / direct=1 / wpredb=1 / wpredp=2 / keyint=250 / keyint_min=25 / scenecut=40 / rc_lookahead=50 / rc=abr / mbtree=1 / bitrate=2216 / ratetol=1.0 / qcomp=0.60 / qpmin=10 / qpmax=51 / qpstep=4 / ip_ratio=1.40 / aq=1:1.00
Default                                  : Да
Forced                                   : Нет

Аудио
Идентификатор                            : 2
Формат                                   : AC-3
Формат/Информация                        : Audio Coding 3
Расширение режима                        : CM (complete main)
Параметр Endianness формата              : Big
Идентификатор кодека                     : A_AC3
Продолжительность                        : 1 ч. 36 м.
Вид битрейта                             : Постоянный
Битрейт                                  : 384 Кбит/сек
Каналы                                   : 6 каналов
Расположение каналов                     : Front: L C R, Side: L R, LFE
Частота                                  : 48,0 КГц
Битовая глубина                          : 16 бит
Метод сжатия                             : С потерями
Размер потока                            : 266 Мбайт (15%)
Default                                  : Да
Forced                                   : Нет


скриншот   скриншот   скриншот   скриншот   скриншот  
pb.wtf



Скачать Властелин любви через торрент http://i57.fastpic.ru/big/2013/1009/2b/830e868d8e12afa308d8eff4ebeb752b.png Скачать фильм Властелин любви через торрент бесплантно в хорошем качестве Описание: Пауль Раймонд был прозван в прессе «Королём Сохо» из-за принадлежащего ему огромного клуба и невероятного количества недвижимого ... 8.9 10 13
Info! Золотая раздача, скачанное не засчитывается.
Торрент: Зарегистрирован [2013-10-11 06:15] · скачан: 201 раз
Статус: √ проверено
Размер: 1.74 GB
Как cкачать? Как скачать Властелин любви через торрент | UTorrent

% Раздел Тема Автор DL S | L
Фильмы [HD 720p, 1080p] (Хороший звук DUB, MVO) [ 8.78 GB ] Властелин любви / The Look of Love [2013 Биография BDRip 1080p ()] XLASER Скачать
1 | 0
Фильмы [HD 720p, 1080p] (Хороший звук DUB, MVO) [ 4.22 GB ] Властелин любви / The Look of Love [2013 Биография BDRip 720p ()] XLASER Скачать
1 | 0
Фильмы 2013 [DVDrip, WEB-DLRip, HDrip] [ 1.5 GB ] Властелин любви / The Look of Love [2013 биография BDRip ] potroks Скачать
1 | 0
Фильмы (DVD фильмы) [ 4.35 GB ] Властелин любви / The Look of Love [2013 биография DVD5] R5 voovaz Скачать
1 | 0
Фильмы 2013 [DVDrip, WEB-DLRip, HDrip] [ 1.44 GB ] Властелин любви / The Look of Love [2013 биография HDRip-AVC лицензия] МАКС1 Скачать
1 | 0
Фильмы 2013 [DVDrip, WEB-DLRip, HDrip] [ 1.37 GB ] Властелин любви / The Look of Love [2013 биография HDRip [ лицензия ] ] Ворон Скачать
1 | 0

28-11-2019 20:33  

Отключить всю рекламу на сайте

11-10-2013 07:37 Властелин любви Скачать торрент  

Соломон Немни писал(а):

Цитата:

Пауль Раймонд был прозван в прессе «Королём Сохо» из-за принадлежащего ему огромного клуба и невероятного количества недвижимого имущества, что наряду с его порнобизнесом принесло ему состояние в миллиарды фунтов.

Так а фильм то в итоге о чём?

написано же, биография, о жизни этого порнокороляpb.wtf



    Дорогой пользователь! Огромная просьба, поблагодарите релизера, оцените раздачу и оставьте свои комментарий, если Вы скачали Властелин любви через торрент бесплатно! Внесите свою лепту в развитие PiratBit!
    Комментировать посты могут только пользователи прошедшие не сложную регистрацию
    Показать сообщения:    

    Властелин любви через торрент
    Скачать бесплатно Властелин любви
    Властелин любви скачать торрент
    Властелин любви смотреть онлайн
    Cкачать фильм Властелин любви бесплатно
    Властелин любви скачать торрент в хорошем качестве
    Властелин любви смотреть онлайн бесплатно в хорошем качестве


    Вы не можете начинать темы
    Вы не можете отвечать на сообщения
    Вы не можете редактировать свои сообщения
    Вы не можете удалять свои сообщения
    Вы не можете голосовать в опросах
    Вы не можете прикреплять файлы к сообщениям
    Вы можете скачивать файлы