MEGA SALE -75% Borderlands 3 Super Deluxe всего за 550р. 180 руб. (супер цена). Внимание количество ограничено!!!

iTunes

1+1

iTunes

мы

iTunes

1

iTunes

Чернобыль

iTunes

Ральф против интернета

Лицензия

ПШазам

Лицензия

Игра престолов

Лицензия

30
pack

ВАЖНО

!!Акция!!

Alien_RageХит недели

RePack

Resident Evil 21

ИГРА 18+

pack

RePack

Metro:Exodus

!!Акция!!

Alien_Rage

RePack

fifa19

RePack

Assassins Creed: Odyssey

RePack

NEED FOR SPEED™ PAYBACK

3 сезон

9 сезон

Бесстыжие 9 сезон

Все сериалы

все сериалы на PB.wtf

RePack

FAR CRY 5
Ребята, катастрофически не хватает 1900р. для оплаты серверов за АВГУСТ (всвязи с блокировками трафик упал в 3 раза), 1-2р., выручайте.
  

Выкуп / Ransom (Рон Ховард) [1996 г., триллер, криминал, BDRip, Профессиональный многоголосый+Английский] pb.wtf

Выкуп через торрент pb.wtf

Размер: 5.09 GB | Добавлен: 6 лет назад | Торрент скачан:16 раз
Скачать  

12-10-2013 04:49 Выкуп Скачать торрент  

Выкуп / Ransom
Год выпуска: 1996
Страна: США
Жанр: триллер, криминал
Продолжительность: 02:01:28
Перевод:
Дублированный (Невафильм)
Профессиональный многоголосый (Киномания)
Профессиональный многоголосый (Видеосервис)
Профессиональный многоголосый (FDV)
Профессиональный многоголосый (ТК Россия)
Профессиональный двухголосый (Т НТ)
Авторский одноголосый (С.Визгунов)
Авторский одноголосый (А.Гаврилов)
Авторский одноголосый ( Ю.Живов)
Английский

Субтитры: Русские

Режиссер:Рон Ховард / Ron Howard
Сценарий:Ричард Прайс / Richard Price, Александр Иньон / Alexander Ignon, Сирил Хьюм / Cyril Hume, Ричард Мэйбаум / Richard Maibaum
Продюсер:Брайан Грейзер / Brian Grazer, Кип Хагопиан / Kip Hagopian, Скотт Рудин / Scott Rudin, Тодд Халлоуэлл / Todd Hallowell, Сьюзэн Мерцбах / Susan Merzbach
Оператор:Пётр Собочиньский / Piotr Sobocinski
Композитор:Джеймс Хорнер / James Horner

Мэл Гибсон (Tom Mullen), Рене Руссо (Kate Mullen), Гэри Синиз (Det. Jimmy Shaker), Делрой Линдо (Agent Lonnie Hawkins), Лили Тейлор (Maris Conner), Лив Шрайбер (Clark Barnes), Донни Уолберг (Cubby Barnes), Эван Хэндлер (Miles Roberts), Броли Нолти (Sean Mullen), Нэнси Тикотин (Agent Kimba Welch), Майкл Гэстон (Agent Jack Sickler), Кевин Нил МакКриди (Agent Paul Rhodes)


У преуспевающего владельца авиакомпании похищают сына и требуют выкуп в 2 миллиона долларов. Том Муллен по настоянию жены сообщает о похищении в ФБР, и зритель видит детально выписанную работу специалистов в контакте с отцом.
Выясняется, что в прошлом у Муллена было черное пятно - он дал в свое время взятку и избежал тюрьмы, куда попал другой человек. Фильм имеет довольно неожиданную развязку.

Рейтинг
kinopoisk.ru: 7.611 (6209)
imdb.com: 6.60 (68 525)
MPAA: R - Лицам до 17 лет обязательно присутствие взрослого

Качество: BDRip
Формат: MKV
Видео кодек: AVC
Аудио кодек: AC3
Видео: AVC, 1024x552 (1.855), 2600 kbps, 23,976 fps, 0,192 bpp
Аудио №1: русский / AC3 / 2.0 / 48 kHz / 192 kbps / 16 bit
Аудио №2: русский / AC3 / 5.1 / 48 kHz / 448 kbps / 16 bit
Аудио №3: русский / AC3 / 5.1 / 48 kHz / 448 kbps / 16 bit
Аудио №4: русский / AC3 / 5.1 / 48 kHz / 448 kbps / 16 bit
Аудио №5: русский / AC3 / 2.0 / 48 kHz / 192 kbps / 16 bit
Аудио №6: русский / AC3 / 2.0 / 48 kHz / 192 kbps / 16 bit
Аудио №7: русский / AC3 / 2.0 / 48 kHz / 192 kbps / 16 bit
Аудио №8: русский / AC3 / 5.1 / 48 kHz / 448 kbps / 16 bit
Аудио №9: русский / AC3 / 5.1 / 48 kHz / 384 kbps / 16 bit
Аудио №10: английский / AC3 / 5.1 / 48 kHz / 448 kbps / 16 bit



Общее
Кол-во : 284
Кол-во потоков такого типа : 1
Тип потока : General
Тип потока : Общее
Идентификатор типа потока : 0
Уникальный идентификатор : 229744093567802809914377392515025161297
Уникальный идентификатор : 229744093567802809914377392515025161297 (0xACD71A59EFEF3BD28D998C07D39F4C51)
Кол-во видеопотоков : 1
Кол-во аудиопотоков : 10
Кол-во текстовых потоков : 2
Кол-во потоков меню : 1
Video_Format_List : AVC
Video_Format_WithHint_List : AVC
Видеокодеки : AVC
Video_Language_List : English
Audio_Format_List : AC-3 / AC-3 / AC-3 / AC-3 / AC-3 / AC-3 / AC-3 / AC-3 / AC-3 / AC-3
Audio_Format_WithHint_List : AC-3 / AC-3 / AC-3 / AC-3 / AC-3 / AC-3 / AC-3 / AC-3 / AC-3 / AC-3
Аудиокодеки : AC3 / AC3 / AC3 / AC3 / AC3 / AC3 / AC3 / AC3 / AC3 / AC3
Audio_Language_List : Russian / Russian / Russian / Russian / Russian / Russian / Russian / Russian / Russian / English
Text_Format_List : UTF-8 / UTF-8
Text_Format_WithHint_List : UTF-8 / UTF-8
Текстовые кодеки : UTF-8 / UTF-8
Text_Language_List : Russian / English
Полное имя : H:ТОРРЕНТЫВыкуп.mkv
Имя папки : H:ТОРРЕНТЫ
Имя файла : Выкуп
Расширение : mkv
Формат : Matroska
Формат : Matroska
Формат/Ссылка : http://packs.matroska.org/
Формат/Используется в : mkv mk3d mka mks
Коммерческое название : Matroska
Версия формата : Version 2
Кодек : Matroska
Кодек : Matroska
Кодек/Ссылка : http://packs.matroska.org/
Кодек/Используется в : mkv mk3d mka mks
Размер файла : 5461387997
Размер файла : 5,09 Гбайт
Размер файла : 5 Гбайт
Размер файла : 5,1 Гбайт
Размер файла : 5,09 Гбайт
Размер файла : 5,086 Гбайт
Продолжительность : 7288000
Продолжительность : 2 ч. 1 м.
Продолжительность : 2 ч. 1 м. 28 с. 0 мс.
Продолжительность : 2 ч. 1 м.
Продолжительность : 02:01:28.000
Общий поток : 5994937
Общий поток : 5995 Кбит/сек
Размер потока : 108683143
Размер потока : 104 Мбайт (2%)
Размер потока : 104 Мбайт
Размер потока : 104 Мбайт
Размер потока : 104 Мбайт
Размер потока : 103,6 Мбайт
Размер потока : 104 Мбайт (2%)
Пропорции потока : 0.01990
Заголовок : Vikup.1996.x264.BDRip.(AVC).ExKinoRay
Название фильма : Vikup.1996.x264.BDRip.(AVC).ExKinoRay
Дата кодирования : UTC 2013-10-09 21:04:35
Дата файла : UTC 2013-10-10 12:16:16.870
Дата файла (местная) : 2013-10-10 19:16:16.870
Дата изменения файла : UTC 2013-10-10 12:45:29.930
Дата изменения файла (местная) : 2013-10-10 19:45:29.930
Программа кодирования : mkvmerge v4.0.0 ('The Stars were mine') сборка от Jun 6 2010 16:18:42
Библиотека кодирования : libebml v1.0.0 + libmatroska v1.0.0
Библиотека кодирования : libebml v1.0.0 + libmatroska v1.0.0

Видео
Кол-во : 263
Кол-во потоков такого типа : 1
Тип потока : Video
Тип потока : Видео
Идентификатор типа потока : 0
StreamOrder : 0
Идентификатор : 1
Идентификатор : 1
Уникальный идентификатор : 1
Формат : AVC
Формат/Информация : Advanced Video Codec
Формат/Ссылка : http://developers.videolan.org/x264.html
Коммерческое название : AVC
Профиль формата : High@L4.1
Настройки формата : CABAC / 8 Ref Frames
Параметр CABAC формата : Yes
Параметр CABAC формата : Да
Параметр ReFrames формата : 8
Параметр ReFrames формата : 8 кадров
Интернет-тип носителя : video/H264
Идентификатор кодека : V_MPEG4/ISO/AVC
Идентификатор кодека/Ссылка : http://ffdshow-tryout.sourceforge.net/
Кодек : V_MPEG4/ISO/AVC
Кодек : AVC
Кодек/Семейство : AVC
Кодек/Информация : Advanced Video Codec
Кодек/Ссылка : http://ffdshow-tryout.sourceforge.net/
Профиль кодека : High@L4.1
Настройки кодека : CABAC / 8 Ref Frames
Параметр CABAC кодека : Yes
Codec_Settings_RefFrames : 8
Продолжительность : 7287996
Продолжительность : 2 ч. 1 м.
Продолжительность : 2 ч. 1 м. 27 с. 996 мс.
Продолжительность : 2 ч. 1 м.
Продолжительность : 02:01:27.996
Битрейт : 2600000
Битрейт : 2600 Кбит/сек
Ширина : 1024
Ширина : 1024 пикселя
Высота : 552
Высота : 552 пикселя
Пропорции пикселя : 1.000
Соотношение сторон : 1.855
Соотношение сторон : 1,85:1
Режим частоты кадров : CFR
Режим частоты кадров : Постоянный
Частота кадров : 23.976
Частота кадров : 23,976 кадра/сек
Счётчик кадров : 174737
Разрешение : 8
Разрешение : 8 бит
Колориметрия : 4:2:0
Цветовое пространство : YUV
Субдискретизация насыщенности : 4:2:0
Битовая глубина : 8
Битовая глубина : 8 бит
Тип развёртки : Progressive
Тип развёртки : Прогрессивная
Переплетение : PPF
Переплетение : Прогрессивная
Бит/(Пиксели*Кадры) : 0.192
Задержка : 0
Задержка : 00:00:00.000
Задержка в оригинале : Container
Задержка в оригинале : Контейнер
Размер потока : 2262592854
Размер потока : 2,11 Гбайт (41%)
Размер потока : 2 Гбайт
Размер потока : 2,1 Гбайт
Размер потока : 2,11 Гбайт
Размер потока : 2,107 Гбайт
Размер потока : 2,11 Гбайт (41%)
Пропорции потока : 0.41429
Заголовок : Rip by Enigma-Vladislav71
Библиотека кодирования : x264 - core 116 r2074 2641b9e
Библиотека кодирования : x264 core 116 r2074 2641b9e
Библиотека кодирования/Имя : x264
Библиотека кодирования/Version : core 116 r2074 2641b9e
Настройки программы : cabac=1 / ref=8 / deblock=1:-2:-2 / analyse=0x3:0x133 / me=umh / subme=11 / psy=1 / psy_rd=1.00:0.00 / mixed_ref=1 / me_range=48 / chroma_me=1 / trellis=2 / 8x8dct=1 / cqm=0 / deadzone=21,11 / fast_pskip=0 / chroma_qp_offset=-2 / threads=3 / sliced_threads=0 / nr=0 / decimate=1 / interlaced=0 / bluray_compat=0 / constrained_intra=0 / bframes=8 / b_pyramid=2 / b_adapt=2 / b_bias=0 / direct=3 / weightb=1 / open_gop=0 / weightp=2 / keyint=240 / keyint_min=23 / scenecut=40 / intra_refresh=0 / rc=2pass / mbtree=0 / bitrate=2600 / ratetol=1.0 / qcomp=0.60 / qpmin=10 / qpmax=51 / qpstep=4 / cplxblur=20.0 / qblur=0.5 / ip_ratio=1.40 / pb_ratio=1.30 / aq=2:1.00
Язык : en
Язык : English
Язык : English
Язык : en
Язык : eng
Язык : en
Default : No
Default : Нет
Forced : No
Forced : Нет

Аудио #1
Кол-во : 253
Кол-во потоков такого типа : 10
Тип потока : Audio
Тип потока : Аудио
Идентификатор типа потока : 0
Позиция идентификатора типа потока : 1
StreamOrder : 1
Идентификатор : 2
Идентификатор : 2
Уникальный идентификатор : 4192247450
Формат : AC-3
Формат/Информация : Audio Coding 3
Коммерческое название : AC-3
Расширение режима : CM (complete main)
Параметр Endianness формата : Big
Идентификатор кодека : A_AC3
Кодек : AC3
Кодек : AC3
Кодек/Семейство : AC3
Кодек/Информация : Dolby AC3
Продолжительность : 7288000
Продолжительность : 2 ч. 1 м.
Продолжительность : 2 ч. 1 м. 28 с. 0 мс.
Продолжительность : 2 ч. 1 м.
Продолжительность : 02:01:28.000
Вид битрейта : CBR
Вид битрейта : Постоянный
Битрейт : 192000
Битрейт : 192 Кбит/сек
Каналы : 2
Каналы : 2 канала
Расположение каналов : Front: L R
Расположение каналов : 2/0/0
Частота : 48000
Частота : 48,0 КГц
Количество образцов : 349824000
Разрешение : 16
Разрешение : 16 бит
Битовая глубина : 16
Битовая глубина : 16 бит
Метод сжатия : Lossy
Метод сжатия : С потерями
Задержка : 0
Задержка : 00:00:00.000
Задержка в оригинале : Container
Задержка в оригинале : Контейнер
Задержка видео : 0
Задержка видео : 0
Размер потока : 174912000
Размер потока : 167 Мбайт (3%)
Размер потока : 167 Мбайт
Размер потока : 167 Мбайт
Размер потока : 167 Мбайт
Размер потока : 166,8 Мбайт
Размер потока : 167 Мбайт (3%)
Пропорции потока : 0.03203
Заголовок : Дублированный (Невафильм)
Язык : ru
Язык : Russian
Язык : Russian
Язык : ru
Язык : rus
Язык : ru
Default : Yes
Default : Да
Forced : No
Forced : Нет
bsid : 8
dialnorm : -27
dialnorm/String : -27 dB
compr : -0.28
compr/String : -0.28 dB
dynrng : -4.30
dynrng/String : -4.30 dB
dsurmod : 0
acmod : 2
lfeon : 0
dialnorm_Average : -27
dialnorm_Average/String : -27 dB
dialnorm_Minimum : -27
dialnorm_Minimum/String : -27 dB
dialnorm_Maximum : -27
dialnorm_Maximum/String : -27 dB
dialnorm_Count : 2
compr_Average : -0.28
compr_Average/String : -0.28 dB
compr_Minimum : -0.28
compr_Minimum/String : -0.28 dB
compr_Maximum : -0.28
compr_Maximum/String : -0.28 dB
compr_Count : 2
dynrng_Average : -4.30
dynrng_Average/String : -4.30 dB
dynrng_Minimum : -4.30
dynrng_Minimum/String : -4.30 dB
dynrng_Maximum : -4.30
dynrng_Maximum/String : -4.30 dB
dynrng_Count : 2

Аудио #2
Кол-во : 243
Кол-во потоков такого типа : 10
Тип потока : Audio
Тип потока : Аудио
Идентификатор типа потока : 1
Позиция идентификатора типа потока : 2
StreamOrder : 2
Идентификатор : 3
Идентификатор : 3
Уникальный идентификатор : 183777955
Формат : AC-3
Формат/Информация : Audio Coding 3
Коммерческое название : AC-3
Расширение режима : CM (complete main)
Параметр Endianness формата : Big
Идентификатор кодека : A_AC3
Кодек : AC3
Кодек : AC3
Кодек/Семейство : AC3
Кодек/Информация : Dolby AC3
Продолжительность : 7288000
Продолжительность : 2 ч. 1 м.
Продолжительность : 2 ч. 1 м. 28 с. 0 мс.
Продолжительность : 2 ч. 1 м.
Продолжительность : 02:01:28.000
Вид битрейта : CBR
Вид битрейта : Постоянный
Битрейт : 448000
Битрейт : 448 Кбит/сек
Каналы : 6
Каналы : 6 каналов
Расположение каналов : Front: L C R, Side: L R, LFE
Расположение каналов : 3/2/0.1
Частота : 48000
Частота : 48,0 КГц
Количество образцов : 349824000
Разрешение : 16
Разрешение : 16 бит
Битовая глубина : 16
Битовая глубина : 16 бит
Метод сжатия : Lossy
Метод сжатия : С потерями
Задержка : 0
Задержка : 00:00:00.000
Задержка в оригинале : Container
Задержка в оригинале : Контейнер
Задержка видео : 0
Задержка видео : 0
Размер потока : 408128000
Размер потока : 389 Мбайт (7%)
Размер потока : 389 Мбайт
Размер потока : 389 Мбайт
Размер потока : 389 Мбайт
Размер потока : 389,2 Мбайт
Размер потока : 389 Мбайт (7%)
Пропорции потока : 0.07473
Заголовок : Профессиональный многоголосый (Киномания)
Язык : ru
Язык : Russian
Язык : Russian
Язык : ru
Язык : rus
Язык : ru
Default : No
Default : Нет
Forced : No
Forced : Нет
bsid : 8
dialnorm : -27
dialnorm/String : -27 dB
compr : -0.28
compr/String : -0.28 dB
acmod : 7
lfeon : 1
dialnorm_Average : -27
dialnorm_Average/String : -27 dB
dialnorm_Minimum : -27
dialnorm_Minimum/String : -27 dB
dialnorm_Maximum : -27
dialnorm_Maximum/String : -27 dB
dialnorm_Count : 2
compr_Average : -0.28
compr_Average/String : -0.28 dB
compr_Minimum : -0.28
compr_Minimum/String : -0.28 dB
compr_Maximum : -0.28
compr_Maximum/String : -0.28 dB
compr_Count : 2

Аудио #3
Кол-во : 234
Кол-во потоков такого типа : 10
Тип потока : Audio
Тип потока : Аудио
Идентификатор типа потока : 2
Позиция идентификатора типа потока : 3
StreamOrder : 3
Идентификатор : 4
Идентификатор : 4
Уникальный идентификатор : 4264108990
Формат : AC-3
Формат/Информация : Audio Coding 3
Коммерческое название : AC-3
Расширение режима : CM (complete main)
Параметр Endianness формата : Big
Идентификатор кодека : A_AC3
Кодек : AC3
Кодек : AC3
Кодек/Семейство : AC3
Кодек/Информация : Dolby AC3
Продолжительность : 7288000
Продолжительность : 2 ч. 1 м.
Продолжительность : 2 ч. 1 м. 28 с. 0 мс.
Продолжительность : 2 ч. 1 м.
Продолжительность : 02:01:28.000
Вид битрейта : CBR
Вид битрейта : Постоянный
Битрейт : 448000
Битрейт : 448 Кбит/сек
Каналы : 6
Каналы : 6 каналов
Расположение каналов : Front: L C R, Side: L R, LFE
Расположение каналов : 3/2/0.1
Частота : 48000
Частота : 48,0 КГц
Количество образцов : 349824000
Разрешение : 16
Разрешение : 16 бит
Битовая глубина : 16
Битовая глубина : 16 бит
Метод сжатия : Lossy
Метод сжатия : С потерями
Задержка : 0
Задержка : 00:00:00.000
Задержка в оригинале : Container
Задержка в оригинале : Контейнер
Задержка видео : 0
Задержка видео : 0
Размер потока : 408128000
Размер потока : 389 Мбайт (7%)
Размер потока : 389 Мбайт
Размер потока : 389 Мбайт
Размер потока : 389 Мбайт
Размер потока : 389,2 Мбайт
Размер потока : 389 Мбайт (7%)
Пропорции потока : 0.07473
Заголовок : Профессиональный многоголосый (Видеосервис)
Язык : ru
Язык : Russian
Язык : Russian
Язык : ru
Язык : rus
Язык : ru
Default : No
Default : Нет
Forced : No
Forced : Нет
bsid : 8
dialnorm : -31
dialnorm/String : -31 dB
acmod : 7
lfeon : 1
dialnorm_Average : -31
dialnorm_Average/String : -31 dB
dialnorm_Minimum : -31
dialnorm_Minimum/String : -31 dB
dialnorm_Maximum : -31
dialnorm_Maximum/String : -31 dB
dialnorm_Count : 2

Аудио #4
Кол-во : 234
Кол-во потоков такого типа : 10
Тип потока : Audio
Тип потока : Аудио
Идентификатор типа потока : 3
Позиция идентификатора типа потока : 4
StreamOrder : 4
Идентификатор : 5
Идентификатор : 5
Уникальный идентификатор : 2837846194
Формат : AC-3
Формат/Информация : Audio Coding 3
Коммерческое название : AC-3
Расширение режима : CM (complete main)
Параметр Endianness формата : Big
Идентификатор кодека : A_AC3
Кодек : AC3
Кодек : AC3
Кодек/Семейство : AC3
Кодек/Информация : Dolby AC3
Продолжительность : 7288000
Продолжительность : 2 ч. 1 м.
Продолжительность : 2 ч. 1 м. 28 с. 0 мс.
Продолжительность : 2 ч. 1 м.
Продолжительность : 02:01:28.000
Вид битрейта : CBR
Вид битрейта : Постоянный
Битрейт : 448000
Битрейт : 448 Кбит/сек
Каналы : 6
Каналы : 6 каналов
Расположение каналов : Front: L C R, Side: L R, LFE
Расположение каналов : 3/2/0.1
Частота : 48000
Частота : 48,0 КГц
Количество образцов : 349824000
Разрешение : 16
Разрешение : 16 бит
Битовая глубина : 16
Битовая глубина : 16 бит
Метод сжатия : Lossy
Метод сжатия : С потерями
Задержка : 0
Задержка : 00:00:00.000
Задержка в оригинале : Container
Задержка в оригинале : Контейнер
Задержка видео : 0
Задержка видео : 0
Размер потока : 408128000
Размер потока : 389 Мбайт (7%)
Размер потока : 389 Мбайт
Размер потока : 389 Мбайт
Размер потока : 389 Мбайт
Размер потока : 389,2 Мбайт
Размер потока : 389 Мбайт (7%)
Пропорции потока : 0.07473
Заголовок : Профессиональный многоголосый (FDV)
Язык : ru
Язык : Russian
Язык : Russian
Язык : ru
Язык : rus
Язык : ru
Default : No
Default : Нет
Forced : No
Forced : Нет
bsid : 8
dialnorm : -31
dialnorm/String : -31 dB
acmod : 7
lfeon : 1
dialnorm_Average : -31
dialnorm_Average/String : -31 dB
dialnorm_Minimum : -31
dialnorm_Minimum/String : -31 dB
dialnorm_Maximum : -31
dialnorm_Maximum/String : -31 dB
dialnorm_Count : 2

Аудио #5
Кол-во : 244
Кол-во потоков такого типа : 10
Тип потока : Audio
Тип потока : Аудио
Идентификатор типа потока : 4
Позиция идентификатора типа потока : 5
StreamOrder : 5
Идентификатор : 6
Идентификатор : 6
Уникальный идентификатор : 3493225110
Формат : AC-3
Формат/Информация : Audio Coding 3
Коммерческое название : AC-3
Расширение режима : CM (complete main)
Параметр Endianness формата : Big
Идентификатор кодека : A_AC3
Кодек : AC3
Кодек : AC3
Кодек/Семейство : AC3
Кодек/Информация : Dolby AC3
Продолжительность : 7288000
Продолжительность : 2 ч. 1 м.
Продолжительность : 2 ч. 1 м. 28 с. 0 мс.
Продолжительность : 2 ч. 1 м.
Продолжительность : 02:01:28.000
Вид битрейта : CBR
Вид битрейта : Постоянный
Битрейт : 192000
Битрейт : 192 Кбит/сек
Каналы : 2
Каналы : 2 канала
Расположение каналов : Front: L R
Расположение каналов : 2/0/0
Частота : 48000
Частота : 48,0 КГц
Количество образцов : 349824000
Разрешение : 16
Разрешение : 16 бит
Битовая глубина : 16
Битовая глубина : 16 бит
Метод сжатия : Lossy
Метод сжатия : С потерями
Задержка : 0
Задержка : 00:00:00.000
Задержка в оригинале : Container
Задержка в оригинале : Контейнер
Задержка видео : 0
Задержка видео : 0
Размер потока : 174912000
Размер потока : 167 Мбайт (3%)
Размер потока : 167 Мбайт
Размер потока : 167 Мбайт
Размер потока : 167 Мбайт
Размер потока : 166,8 Мбайт
Размер потока : 167 Мбайт (3%)
Пропорции потока : 0.03203
Заголовок : Профессиональный многоголосый (ТК Россия)
Язык : ru
Язык : Russian
Язык : Russian
Язык : ru
Язык : rus
Язык : ru
Default : No
Default : Нет
Forced : No
Forced : Нет
bsid : 8
dialnorm : -27
dialnorm/String : -27 dB
compr : -0.28
compr/String : -0.28 dB
dsurmod : 0
acmod : 2
lfeon : 0
dialnorm_Average : -27
dialnorm_Average/String : -27 dB
dialnorm_Minimum : -27
dialnorm_Minimum/String : -27 dB
dialnorm_Maximum : -27
dialnorm_Maximum/String : -27 dB
dialnorm_Count : 2
compr_Average : -0.28
compr_Average/String : -0.28 dB
compr_Minimum : -0.28
compr_Minimum/String : -0.28 dB
compr_Maximum : -0.28
compr_Maximum/String : -0.28 dB
compr_Count : 2

Аудио #6
Кол-во : 244
Кол-во потоков такого типа : 10
Тип потока : Audio
Тип потока : Аудио
Идентификатор типа потока : 5
Позиция идентификатора типа потока : 6
StreamOrder : 6
Идентификатор : 7
Идентификатор : 7
Уникальный идентификатор : 3421117069
Формат : AC-3
Формат/Информация : Audio Coding 3
Коммерческое название : AC-3
Расширение режима : CM (complete main)
Параметр Endianness формата : Big
Идентификатор кодека : A_AC3
Кодек : AC3
Кодек : AC3
Кодек/Семейство : AC3
Кодек/Информация : Dolby AC3
Продолжительность : 7288000
Продолжительность : 2 ч. 1 м.
Продолжительность : 2 ч. 1 м. 28 с. 0 мс.
Продолжительность : 2 ч. 1 м.
Продолжительность : 02:01:28.000
Вид битрейта : CBR
Вид битрейта : Постоянный
Битрейт : 192000
Битрейт : 192 Кбит/сек
Каналы : 2
Каналы : 2 канала
Расположение каналов : Front: L R
Расположение каналов : 2/0/0
Частота : 48000
Частота : 48,0 КГц
Количество образцов : 349824000
Разрешение : 16
Разрешение : 16 бит
Битовая глубина : 16
Битовая глубина : 16 бит
Метод сжатия : Lossy
Метод сжатия : С потерями
Задержка : 0
Задержка : 00:00:00.000
Задержка в оригинале : Container
Задержка в оригинале : Контейнер
Задержка видео : 0
Задержка видео : 0
Размер потока : 174912000
Размер потока : 167 Мбайт (3%)
Размер потока : 167 Мбайт
Размер потока : 167 Мбайт
Размер потока : 167 Мбайт
Размер потока : 166,8 Мбайт
Размер потока : 167 Мбайт (3%)
Пропорции потока : 0.03203
Заголовок : Профессиональный двухголосый (ТНТ)
Язык : ru
Язык : Russian
Язык : Russian
Язык : ru
Язык : rus
Язык : ru
Default : No
Default : Нет
Forced : No
Forced : Нет
bsid : 8
dialnorm : -27
dialnorm/String : -27 dB
compr : -0.28
compr/String : -0.28 dB
dsurmod : 0
acmod : 2
lfeon : 0
dialnorm_Average : -27
dialnorm_Average/String : -27 dB
dialnorm_Minimum : -27
dialnorm_Minimum/String : -27 dB
dialnorm_Maximum : -27
dialnorm_Maximum/String : -27 dB
dialnorm_Count : 2
compr_Average : -0.28
compr_Average/String : -0.28 dB
compr_Minimum : -0.28
compr_Minimum/String : -0.28 dB
compr_Maximum : -0.28
compr_Maximum/String : -0.28 dB
compr_Count : 2

Аудио #7
Кол-во : 244
Кол-во потоков такого типа : 10
Тип потока : Audio
Тип потока : Аудио
Идентификатор типа потока : 6
Позиция идентификатора типа потока : 7
StreamOrder : 7
Идентификатор : 8
Идентификатор : 8
Уникальный идентификатор : 829621912
Формат : AC-3
Формат/Информация : Audio Coding 3
Коммерческое название : AC-3
Расширение режима : CM (complete main)
Параметр Endianness формата : Big
Идентификатор кодека : A_AC3
Кодек : AC3
Кодек : AC3
Кодек/Семейство : AC3
Кодек/Информация : Dolby AC3
Продолжительность : 7288000
Продолжительность : 2 ч. 1 м.
Продолжительность : 2 ч. 1 м. 28 с. 0 мс.
Продолжительность : 2 ч. 1 м.
Продолжительность : 02:01:28.000
Вид битрейта : CBR
Вид битрейта : Постоянный
Битрейт : 192000
Битрейт : 192 Кбит/сек
Каналы : 2
Каналы : 2 канала
Расположение каналов : Front: L R
Расположение каналов : 2/0/0
Частота : 48000
Частота : 48,0 КГц
Количество образцов : 349824000
Разрешение : 16
Разрешение : 16 бит
Битовая глубина : 16
Битовая глубина : 16 бит
Метод сжатия : Lossy
Метод сжатия : С потерями
Задержка : 0
Задержка : 00:00:00.000
Задержка в оригинале : Container
Задержка в оригинале : Контейнер
Задержка видео : 0
Задержка видео : 0
Размер потока : 174912000
Размер потока : 167 Мбайт (3%)
Размер потока : 167 Мбайт
Размер потока : 167 Мбайт
Размер потока : 167 Мбайт
Размер потока : 166,8 Мбайт
Размер потока : 167 Мбайт (3%)
Пропорции потока : 0.03203
Заголовок : Авторский одноголосый (С.Визгунов)
Язык : ru
Язык : Russian
Язык : Russian
Язык : ru
Язык : rus
Язык : ru
Default : No
Default : Нет
Forced : No
Forced : Нет
bsid : 8
dialnorm : -27
dialnorm/String : -27 dB
compr : -0.28
compr/String : -0.28 dB
dsurmod : 0
acmod : 2
lfeon : 0
dialnorm_Average : -27
dialnorm_Average/String : -27 dB
dialnorm_Minimum : -27
dialnorm_Minimum/String : -27 dB
dialnorm_Maximum : -27
dialnorm_Maximum/String : -27 dB
dialnorm_Count : 2
compr_Average : -0.28
compr_Average/String : -0.28 dB
compr_Minimum : -0.28
compr_Minimum/String : -0.28 dB
compr_Maximum : -0.28
compr_Maximum/String : -0.28 dB
compr_Count : 2

Аудио #8
Кол-во : 243
Кол-во потоков такого типа : 10
Тип потока : Audio
Тип потока : Аудио
Идентификатор типа потока : 7
Позиция идентификатора типа потока : 8
StreamOrder : 8
Идентификатор : 9
Идентификатор : 9
Уникальный идентификатор : 2022584979
Формат : AC-3
Формат/Информация : Audio Coding 3
Коммерческое название : AC-3
Расширение режима : CM (complete main)
Параметр Endianness формата : Big
Идентификатор кодека : A_AC3
Кодек : AC3
Кодек : AC3
Кодек/Семейство : AC3
Кодек/Информация : Dolby AC3
Продолжительность : 7288000
Продолжительность : 2 ч. 1 м.
Продолжительность : 2 ч. 1 м. 28 с. 0 мс.
Продолжительность : 2 ч. 1 м.
Продолжительность : 02:01:28.000
Вид битрейта : CBR
Вид битрейта : Постоянный
Битрейт : 448000
Битрейт : 448 Кбит/сек
Каналы : 6
Каналы : 6 каналов
Расположение каналов : Front: L C R, Side: L R, LFE
Расположение каналов : 3/2/0.1
Частота : 48000
Частота : 48,0 КГц
Количество образцов : 349824000
Разрешение : 16
Разрешение : 16 бит
Битовая глубина : 16
Битовая глубина : 16 бит
Метод сжатия : Lossy
Метод сжатия : С потерями
Задержка : 0
Задержка : 00:00:00.000
Задержка в оригинале : Container
Задержка в оригинале : Контейнер
Задержка видео : 0
Задержка видео : 0
Размер потока : 408128000
Размер потока : 389 Мбайт (7%)
Размер потока : 389 Мбайт
Размер потока : 389 Мбайт
Размер потока : 389 Мбайт
Размер потока : 389,2 Мбайт
Размер потока : 389 Мбайт (7%)
Пропорции потока : 0.07473
Заголовок : Авторский одноголосый (А.Гаврилов)
Язык : ru
Язык : Russian
Язык : Russian
Язык : ru
Язык : rus
Язык : ru
Default : No
Default : Нет
Forced : No
Forced : Нет
bsid : 8
dialnorm : -27
dialnorm/String : -27 dB
compr : -0.28
compr/String : -0.28 dB
acmod : 7
lfeon : 1
dialnorm_Average : -27
dialnorm_Average/String : -27 dB
dialnorm_Minimum : -27
dialnorm_Minimum/String : -27 dB
dialnorm_Maximum : -27
dialnorm_Maximum/String : -27 dB
dialnorm_Count : 2
compr_Average : -0.28
compr_Average/String : -0.28 dB
compr_Minimum : -0.28
compr_Minimum/String : -0.28 dB
compr_Maximum : -0.28
compr_Maximum/String : -0.28 dB
compr_Count : 2

Аудио #9
Кол-во : 243
Кол-во потоков такого типа : 10
Тип потока : Audio
Тип потока : Аудио
Идентификатор типа потока : 8
Позиция идентификатора типа потока : 9
StreamOrder : 9
Идентификатор : 10
Идентификатор : 10
Уникальный идентификатор : 3344100753
Формат : AC-3
Формат/Информация : Audio Coding 3
Коммерческое название : AC-3
Расширение режима : CM (complete main)
Параметр Endianness формата : Big
Идентификатор кодека : A_AC3
Кодек : AC3
Кодек : AC3
Кодек/Семейство : AC3
Кодек/Информация : Dolby AC3
Продолжительность : 7288000
Продолжительность : 2 ч. 1 м.
Продолжительность : 2 ч. 1 м. 28 с. 0 мс.
Продолжительность : 2 ч. 1 м.
Продолжительность : 02:01:28.000
Вид битрейта : CBR
Вид битрейта : Постоянный
Битрейт : 384000
Битрейт : 384 Кбит/сек
Каналы : 6
Каналы : 6 каналов
Расположение каналов : Front: L C R, Side: L R, LFE
Расположение каналов : 3/2/0.1
Частота : 48000
Частота : 48,0 КГц
Количество образцов : 349824000
Разрешение : 16
Разрешение : 16 бит
Битовая глубина : 16
Битовая глубина : 16 бит
Метод сжатия : Lossy
Метод сжатия : С потерями
Задержка : 0
Задержка : 00:00:00.000
Задержка в оригинале : Container
Задержка в оригинале : Контейнер
Задержка видео : 0
Задержка видео : 0
Размер потока : 349824000
Размер потока : 334 Мбайт (6%)
Размер потока : 334 Мбайт
Размер потока : 334 Мбайт
Размер потока : 334 Мбайт
Размер потока : 333,6 Мбайт
Размер потока : 334 Мбайт (6%)
Пропорции потока : 0.06405
Заголовок : Авторский одноголосый ( Ю.Живов)
Язык : ru
Язык : Russian
Язык : Russian
Язык : ru
Язык : rus
Язык : ru
Default : No
Default : Нет
Forced : No
Forced : Нет
bsid : 8
dialnorm : -27
dialnorm/String : -27 dB
compr : -0.28
compr/String : -0.28 dB
acmod : 7
lfeon : 1
dialnorm_Average : -27
dialnorm_Average/String : -27 dB
dialnorm_Minimum : -27
dialnorm_Minimum/String : -27 dB
dialnorm_Maximum : -27
dialnorm_Maximum/String : -27 dB
dialnorm_Count : 2
compr_Average : -0.28
compr_Average/String : -0.28 dB
compr_Minimum : -0.28
compr_Minimum/String : -0.28 dB
compr_Maximum : -0.28
compr_Maximum/String : -0.28 dB
compr_Count : 2

Аудио #10
Кол-во : 234
Кол-во потоков такого типа : 10
Тип потока : Audio
Тип потока : Аудио
Идентификатор типа потока : 9
Позиция идентификатора типа потока : 10
StreamOrder : 10
Идентификатор : 11
Идентификатор : 11
Уникальный идентификатор : 1425269147
Формат : AC-3
Формат/Информация : Audio Coding 3
Коммерческое название : AC-3
Расширение режима : CM (complete main)
Параметр Endianness формата : Big
Идентификатор кодека : A_AC3
Кодек : AC3
Кодек : AC3
Кодек/Семейство : AC3
Кодек/Информация : Dolby AC3
Продолжительность : 7288000
Продолжительность : 2 ч. 1 м.
Продолжительность : 2 ч. 1 м. 28 с. 0 мс.
Продолжительность : 2 ч. 1 м.
Продолжительность : 02:01:28.000
Вид битрейта : CBR
Вид битрейта : Постоянный
Битрейт : 448000
Битрейт : 448 Кбит/сек
Каналы : 6
Каналы : 6 каналов
Расположение каналов : Front: L C R, Side: L R, LFE
Расположение каналов : 3/2/0.1
Частота : 48000
Частота : 48,0 КГц
Количество образцов : 349824000
Разрешение : 16
Разрешение : 16 бит
Битовая глубина : 16
Битовая глубина : 16 бит
Метод сжатия : Lossy
Метод сжатия : С потерями
Задержка : 0
Задержка : 00:00:00.000
Задержка в оригинале : Container
Задержка в оригинале : Контейнер
Задержка видео : 0
Задержка видео : 0
Размер потока : 408128000
Размер потока : 389 Мбайт (7%)
Размер потока : 389 Мбайт
Размер потока : 389 Мбайт
Размер потока : 389 Мбайт
Размер потока : 389,2 Мбайт
Размер потока : 389 Мбайт (7%)
Пропорции потока : 0.07473
Заголовок : английский
Язык : en
Язык : English
Язык : English
Язык : en
Язык : eng
Язык : en
Default : No
Default : Нет
Forced : No
Forced : Нет
bsid : 8
dialnorm : -31
dialnorm/String : -31 dB
acmod : 7
lfeon : 1
dialnorm_Average : -31
dialnorm_Average/String : -31 dB
dialnorm_Minimum : -31
dialnorm_Minimum/String : -31 dB
dialnorm_Maximum : -31
dialnorm_Maximum/String : -31 dB
dialnorm_Count : 2

Текст #1
Кол-во : 195
Кол-во потоков такого типа : 2
Тип потока : Text
Тип потока : Текст
Идентификатор типа потока : 0
Позиция идентификатора типа потока : 1
StreamOrder : 11
Идентификатор : 12
Идентификатор : 12
Уникальный идентификатор : 783786169
Формат : UTF-8
Коммерческое название : UTF-8
Идентификатор кодека : S_TEXT/UTF8
Идентификатор кодека/Информация : UTF-8 Plain Text
Кодек : S_TEXT/UTF8
Кодек : UTF-8
Кодек/Информация : UTF-8 Plain Text
Язык : ru
Язык : Russian
Язык : Russian
Язык : ru
Язык : rus
Язык : ru
Default : Yes
Default : Да
Forced : No
Forced : Нет

Текст #2
Кол-во : 195
Кол-во потоков такого типа : 2
Тип потока : Text
Тип потока : Текст
Идентификатор типа потока : 1
Позиция идентификатора типа потока : 2
StreamOrder : 12
Идентификатор : 13
Идентификатор : 13
Уникальный идентификатор : 3981064095
Формат : UTF-8
Коммерческое название : UTF-8
Идентификатор кодека : S_TEXT/UTF8
Идентификатор кодека/Информация : UTF-8 Plain Text
Кодек : S_TEXT/UTF8
Кодек : UTF-8
Кодек/Информация : UTF-8 Plain Text
Язык : en
Язык : English
Язык : English
Язык : en
Язык : eng
Язык : en
Default : No
Default : Нет
Forced : No
Forced : Нет

Меню
Кол-во : 100
Кол-во потоков такого типа : 1
Тип потока : Menu
Тип потока : Меню
Идентификатор типа потока : 0
Chapters_Pos_Begin : 75
Chapters_Pos_End : 100
00:00:00.000 : en:Chapter 01
00:05:00.000 : en:Chapter 02
00:10:00.000 : en:Chapter 03
00:15:00.000 : en:Chapter 04
00:20:00.000 : en:Chapter 05
00:25:00.000 : en:Chapter 06
00:30:00.000 : en:Chapter 07
00:35:00.000 : en:Chapter 08
00:40:00.000 : en:Chapter 09
00:45:00.000 : en:Chapter 10
00:50:00.000 : en:Chapter 11
00:55:00.000 : en:Chapter 12
01:00:00.000 : en:Chapter 13
01:05:00.000 : en:Chapter 14
01:10:00.000 : en:Chapter 15
01:15:00.000 : en:Chapter 16
01:20:00.000 : en:Chapter 17
01:25:00.000 : en:Chapter 18
01:30:00.000 : en:Chapter 19
01:35:00.000 : en:Chapter 20
01:40:00.000 : en:Chapter 21
01:45:00.000 : en:Chapter 22
01:50:00.000 : en:Chapter 23
01:55:00.000 : en:Chapter 24
02:00:00.000 : en:Chapter 25



pb.wtf



Скачать Выкуп через торрент http://s018.radikal.ru/i507/1310/06/6de83e44a0bf.jpg Скачать фильм Выкуп через торрент бесплантно в хорошем качестве Год выпуска: 1996Страна: СШАЖанр: триллер, криминалПродолжительность: 02:01:28Перевод: Дублированный (Невафильм)Профессиональный ... 6.8 10 4
Info! Золотая раздача, скачанное не засчитывается.
Торрент: Зарегистрирован [2013-10-12 04:49] · скачан: 16 раз
Статус: √ проверено
Размер: 5.09 GB
Как cкачать? Как скачать Выкуп через торрент | qTorrent

% Раздел Тема Автор DL S | L
T Фильмы (мультфильмы) cо спонсором показа (Новинки AVI/MKV) [ 1.37 GB ] Выкуп за дочь / My Daughter's Ransom [2019 HDTVRip] MVO ["Синема УС"] bober100 Скачать
2 | 0
Зарубежные сериалы [ 10.39 GB ] Выкуп / Ransom / Сезон: 1 / Серии 1-13 из 13 [2017 WEB-DLRip-AVC] MVO [BaibaKo] GEKADOL Скачать
1 | 0
T Релизы по Парсеру [Игры, Сериалы и Фильмы и другое...] [ 1.37 GB ] Выкуп миллиард / Billionaire Ransom / Take Down HDRip / MVO Ворон Скачать
1 | 0
T Релизы по Парсеру [Игры, Сериалы и Фильмы и другое...] [ 1.46 GB ] Выкуп миллиард / Billionaire Ransom / Take Down HDRip / L1 smaster Скачать
1 | 0
Фильмы до 2000 г. [ 2.17 GB ] Выкуп / Ransom [1996 HDRip by Dean24] Dean24 Скачать
1 | 0
Фильмы до 2000 г. [ 1.99 GB ] Выкуп / Ransom [1996 BDRip] MVO gunk Скачать
1 | 0
Классические порно фильмы [ 694 MB ] Выкуп Евы / La Rancon D' Eva [1985 Classic Feature Anal Straight Oral Lesbian Group DVDRip-AVC Оригинал] sheker187 Скачать
1 | 0


>> Регистрируемся здесь <<






Отзывы и комментарии о схеме читаем и пишем здесь: ---> Отзывы и комментарии о схеме

Новые благодарочки в телеграм довольных пользователей:
скриншот   скриншот   скриншот   скриншот   скриншот

12-10-2013 05:54 Выкуп Скачать торрент  

Видео кодек AVC. :ad:pb.wtf



12-10-2013 06:06 Выкуп Скачать торрент  

лисяра писал(а):

Видео кодек AVC. :ad:

pb.wtf



12-10-2013 08:23 Выкуп Скачать торрент  

pb.wtf



12-10-2013 11:17 Выкуп Скачать торрент  

maksmars975 писал(а):


Не понял в чем проблема? pb.wtf



    Дорогой пользователь! Огромная просьба, поблагодарите релизера, оцените раздачу и оставьте свои комментарий, если Вы скачали Выкуп через торрент бесплатно! Внесите свою лепту в развитие PiratBit!
    Комментировать посты могут только пользователи прошедшие не сложную регистрацию
    Показать сообщения:    

    Выкуп через торрент
    Скачать бесплатно Выкуп
    Выкуп скачать торрент
    Выкуп смотреть онлайн
    Cкачать фильм Выкуп бесплатно
    Выкуп скачать торрент в хорошем качестве
    Выкуп смотреть онлайн бесплатно в хорошем качестве


    Вы не можете начинать темы
    Вы не можете отвечать на сообщения
    Вы не можете редактировать свои сообщения
    Вы не можете удалять свои сообщения
    Вы не можете голосовать в опросах
    Вы не можете прикреплять файлы к сообщениям
    Вы можете скачивать файлы