Ссылка на приватное зеркало нашего сайта всего за 1$. Внимание количество ограничено!!!

2 сезон

iTunes

1 сезон

1

2 сезон

2 сезон

iTunes

1 сезон

RePack

30

Ultimate

ВАЖНО

ИГРА 18+

pack

RePack

MK11
pack

Забери бонус

RePack

jed

!!Акция!!

Alien_Rage

RePack

fifa19

RePack

Assassins Creed: Odyssey

RePack

NEED FOR SPEED™ PAYBACK

4 сезон

9 сезон

Бесстыжие 9 сезон

Все сериалы

все сериалы на PB.wtf

RePack

FAR CRY 5
  

Женский клуб расследований убийств / Women's Murder Club / Сезон: 1 / Серии: 1-13 (13) (Elizabeth Craft, Sarah Fain) [2007, Криминальная драма, детектив, HDTVRip ] MVO (ТВ3) pb.wtf

Женский клуб расследований убийств через торрент pb.wtf

Размер: 5.89 GB | Добавлен: 7 лет 1 мес. назад | Торрент скачан:44 раза
Скачать  

12-10-2013 07:51 Женский клуб расследований убийств Скачать торрент  

Женский клуб расследований убийств / Women's Murder Club
Год выпуска: 2007
Страна: США
Жанр: драма, криминал, детектив, триллер,
Продолжительность: ~43 мин
Перевод: Профессиональный (многоголосый закадровый) ТВ3
Субтитры: Нет

Режиссер: Рик Уоллес Скотт Уинант
Продюссер: Эд Миллкович, Джеймс Паттерсон, Бретт Рэтнер
Сценарий: Элизабет Крафт, Сара Фэйн, Джеймс Паттерсон

В ролях: Энжи Хармон, Лаура Харрис, Паула Ньюсом, Аубри Доллар и другие,

Описание: Участницы «Женского клуба расследования убийств» — это четыре разные по характеру и отношению к жизни героини, которых объединяет работа по расследованию сложных преступлений. Но детектив Линдсей, помощница следователя Джилл, судмедэксперт Клэр (а позже и журналистка Синди) не только гоняются за преступниками. Они еще и близкие подруги, поэтому не думайте, что разговор в сериале будет идти только об убийствах. Здесь и взаимоотношения, и любовь, и дружба, и ссоры — в общем, всё, как положено.

Качество: HDTVRip
Формат: AVI
Видео кодек: XviD
Аудио кодек: MP3
Видео: 720x400 (1.80:1), 23.976 fps, XviD build 50 ~1500 kbps avg, 0.22 bit/pixel
Аудио#1: 48 kHz, MPEG Layer 3, 2 ch, ~128.00 kbps avg
Релиз от:
Общее
Полное имя : D:СериалыWomens murder club_NewSerialWomens murder club.s01e02.HDTVRip.NewSerial.avi
Формат : AVI
Формат/Информация : Audio Video Interleave
Размер файла : 495 Мбайт
Продолжительность : 42 м.
Общий поток : 1638 Кбит/сек
Программа кодирования : VirtualDubMod 1.5.10.3 | www.virtualdub-fr.org || (build 2550/release)
Библиотека кодирования : VirtualDubMod build 2550/release

Видео
Идентификатор : 0
Формат : MPEG-4 Visual
Профиль формата : Advanced Simple@L5
Параметр BVOP формата : 2
Параметр QPel формата : Нет
Параметр GMC формата : Без точки перехода
Параметр матрицы формата : Default (MPEG)
Идентификатор кодека : DX50
Идентификатор кодека/Подсказка : DivX 5
Продолжительность : 42 м.
Битрейт : 1500 Кбит/сек
Ширина : 720 пикселей
Высота : 400 пикселей
Соотношение сторон : 16:9
Частота кадров : 23,976 кадра/сек
Цветовое пространство : YUV
Субдискретизация насыщенности : 4:2:0
Битовая глубина : 8 бит
Тип развёртки : Прогрессивная
Метод сжатия : С потерями
Бит/(Пиксели*Кадры) : 0.217
Размер потока : 453 Мбайт (92%)
Библиотека кодирования : XviD 1.2.1 (UTC 2008-12-04)

Аудио
Идентификатор : 1
Формат : MPEG Audio
Версия формата : Version 1
Профиль формата : Layer 3
Идентификатор кодека : 55
Идентификатор кодека/Подсказка : MP3
Продолжительность : 42 м.
Вид битрейта : Постоянный
Битрейт : 128 Кбит/сек
Каналы : 2 канала
Частота : 48,0 КГц
Метод сжатия : С потерями
Размер потока : 38,7 Мбайт (8%)
Выравнивание : Соединение по промежуткам
Продолжительность промежутка : 42 мс. (1,00 видеокадр)
Время предзагрузки промежутка : 504 мс.
Библиотека кодирования : LAME3.99r
Настройки программы : -m s -V 4 -q 2 -lowpass 17 -b 128

pb.wtf



Скачать Женский клуб расследований убийств через торрент http://i49.fastpic.ru/big/2012/1204/ee/f1bd20673492351c8dcdcb508221dbee.jpg Скачать фильм Женский клуб расследований убийств через торрент бесплантно в хорошем качестве Описание: Участницы «Женского клуба расследования убийств» — это четыре разные по характеру и отношению к жизни героини, которых объединяет ... 7.8 10 4
Info! Золотая раздача, скачанное не засчитывается.
Торрент: Зарегистрирован [2013-10-12 07:51] · скачан: 44 раз
Статус: √ проверено
Размер: 5.89 GB
Как cкачать? Как скачать Женский клуб расследований убийств через торрент | qTorrent



Последний раз редактировалось: uapushkin (2013-10-12 08:15), всего редактировалось 1 раз

28-11-2019 20:33  

Отключить всю рекламу на сайте

    Дорогой пользователь! Огромная просьба, поблагодарите релизера, оцените раздачу и оставьте свои комментарий, если Вы скачали Женский клуб расследований убийств через торрент бесплатно! Внесите свою лепту в развитие PiratBit!
    Комментировать посты могут только пользователи прошедшие не сложную регистрацию
    Показать сообщения:    

    Женский клуб расследований убийств через торрент
    Скачать бесплатно Женский клуб расследований убийств
    Женский клуб расследований убийств скачать торрент
    Женский клуб расследований убийств смотреть онлайн
    Cкачать фильм Женский клуб расследований убийств бесплатно
    Женский клуб расследований убийств скачать торрент в хорошем качестве
    Женский клуб расследований убийств смотреть онлайн бесплатно в хорошем качестве


    Вы не можете начинать темы
    Вы не можете отвечать на сообщения
    Вы не можете редактировать свои сообщения
    Вы не можете удалять свои сообщения
    Вы не можете голосовать в опросах
    Вы не можете прикреплять файлы к сообщениям
    Вы можете скачивать файлы