Ссылка на приватное зеркало нашего сайта всего за 1$. Внимание количество ограничено!!!

2 сезон

iTunes

1 сезон

1

2 сезон

2 сезон

iTunes

1 сезон

RePack

30

Новинка

ВАЖНО

ИГРА 18+

pack

RePack

MK11
pack

Забери бонус

RePack

jed

!!Акция!!

Alien_Rage

RePack

fifa19

RePack

Assassins Creed: Odyssey

RePack

NEED FOR SPEED™ PAYBACK

4 сезон

9 сезон

Бесстыжие 9 сезон

Все сериалы

все сериалы на PB.wtf

RePack

FAR CRY 5
  

Шекспир на новый лад / ShakespeaRe-Told / Сезон: 1 / Серии: 1-4 (4) (Марк Брозел, Эд Фрэйман, Брайан Персивал) [2005 г., Драма, мелодрама, комедия, DVDRip, Профессиональный многоголосый, ТВ3] pb.wtf

Шекспир на новый лад через торрент pb.wtf

Размер: 3.99 GB | Добавлен: 7 лет 1 мес. назад | Торрент скачан:41 раз
Скачать  

12-10-2013 07:57 Шекспир на новый лад Скачать торрент  

Шекспир на новый лад / ShakespeaRe-Told
Год выпуска: 2005
Страна: Великобритания
Жанр: Драма, мелодрама, комедия,
Продолжительность: ~ 01:25:00
Перевод: Профессиональный (многоголосый закадровый) ТВ3
Субтитры: Нет

Режиссер: Марк Брозел Эд Фрэйман Брайан Персивал
Продюссер: Лаура Маки, Патрик Спенс, Кармел Малони
Сценарий: Уильям Шекспир

В ролях: Ник Малиновски, Сара Пэриш, Дамиан Льюис, Эндрю Барклай, George Couyas, Мартин Джарвис, Оливия Колман, Том Эллис, Дерек Ридделл, Патрик Райкарт,

Описание: «Шекспир на новый лад» — адаптация четырёх произведений Уильяма Шекспира. Действие пьес «Макбет», «Укрощение строптивой», «Много шума из ничего» и «Сон в летнюю ночь» перенесено в XXI век.

Качество: DVDRip
Формат: AVI
Видео кодек: XviD
Аудио кодек: MP3
Видео: 720x400 (1.80:1), 25 fps, XviD build 50 ~1507 kbps avg, 0.21 bit/pixel
Аудио#1: 48 kHz, MPEG Layer 3, 2 ch, ~128.00 kbps avg
Релиз от:
Общее
Полное имя : D:СериалыShakespeaRe-ToldShakespeaRe-Told_S01-E01_DVDRip_NewSerial.avi
Формат : AVI
Формат/Информация : Audio Video Interleave
Профиль формата : OpenDML
Размер файла : 1,03 Гбайт
Продолжительность : 1 ч. 29 м.
Общий поток : 1642 Кбит/сек
Программа кодирования : Lavf52.93.0

Видео
Идентификатор : 0
Формат : xvid
Идентификатор кодека : xvid
Продолжительность : 1 ч. 29 м.
Битрейт : 1498 Кбит/сек
Ширина : 720 пикселей
Высота : 400 пикселей
Соотношение сторон : 2,560
Частота кадров : 25,000 кадров/сек
Бит/(Пиксели*Кадры) : 0.208
Размер потока : 961 Мбайт (91%)

Аудио
Идентификатор : 1
Формат : MPEG Audio
Версия формата : Version 1
Профиль формата : Layer 3
Режим : Joint stereo
Расширение режима : MS Stereo
Идентификатор кодека : 55
Идентификатор кодека/Подсказка : MP3
Продолжительность : 1 ч. 29 м.
Вид битрейта : Постоянный
Битрейт : 128 Кбит/сек
Каналы : 2 канала
Частота : 48,0 КГц
Метод сжатия : С потерями
Размер потока : 82,2 Мбайт (8%)
Выравнивание : Соединение по промежуткам
Продолжительность промежутка : 24 мс. (0,60 видеокадр)

pb.wtf



Скачать Шекспир на новый лад через торрент http://i43.fastpic.ru/big/2012/0716/5c/ae8c44b2e7c2a9d697c1ce01cae2df5c.jpg Скачать фильм Шекспир на новый лад через торрент бесплантно в хорошем качестве Описание: «Шекспир на новый лад» — адаптация четырёх произведений Уильяма Шекспира. Действие пьес «Макбет», «Укрощение строптивой», «Много ... 10 10 1
Info! Золотая раздача, скачанное не засчитывается.
Торрент: Зарегистрирован [2013-10-12 07:57] · скачан: 41 раз
Статус: √ проверено
Размер: 3.99 GB
Как cкачать? Как скачать Шекспир на новый лад через торрент | qTorrent



Последний раз редактировалось: uapushkin (2013-10-12 08:17), всего редактировалось 2 раз(а)

28-11-2019 20:33  

Отключить всю рекламу на сайте

12-10-2013 08:16 Шекспир на новый лад Скачать торрент  

uapushkin
http://pb.wtf/topic/60084/

Цитата:

1. Заголовок

1.1 Общий вид:

Название на русском / Название на оригинале / Сезон / (Кол-во серий) (режиссер) [год, жанр, качество, перевод]

uapushkin писал(а):

Перевод: Профессиональный многоголосый, Лицензия

Нет лицензий в сериалах...тут у Вас
Перевод: Профессиональный многоголосый закадровый / TV3 / павим

http://i5.imageban.ru/out/2013/10/12/3a9e67432072d5a32b9527ddfb9d6231.png
Осталось только встать на раздачу
pb.wtf



    Дорогой пользователь! Огромная просьба, поблагодарите релизера, оцените раздачу и оставьте свои комментарий, если Вы скачали Шекспир на новый лад через торрент бесплатно! Внесите свою лепту в развитие PiratBit!
    Комментировать посты могут только пользователи прошедшие не сложную регистрацию
    Показать сообщения:    

    Шекспир на новый лад через торрент
    Скачать бесплатно Шекспир на новый лад
    Шекспир на новый лад скачать торрент
    Шекспир на новый лад смотреть онлайн
    Cкачать фильм Шекспир на новый лад бесплатно
    Шекспир на новый лад скачать торрент в хорошем качестве
    Шекспир на новый лад смотреть онлайн бесплатно в хорошем качестве


    Вы не можете начинать темы
    Вы не можете отвечать на сообщения
    Вы не можете редактировать свои сообщения
    Вы не можете удалять свои сообщения
    Вы не можете голосовать в опросах
    Вы не можете прикреплять файлы к сообщениям
    Вы можете скачивать файлы