2 сезон

iTunes

MVO

1

2 сезон

iTunes

iTunes

1 сезон

RePack

30

Новинка

ВАЖНО

ИГРА 18+

pack

RePack

MK11
pack

Легкие деньги

RePack

jed

RePack

fifa19

RePack

RDR2

RePack

NEED FOR SPEED™ PAYBACK

4 сезон

9 сезон

Бесстыжие 9 сезон

Все сериалы

все сериалы на PB.wtf

RePack

FAR CRY 5

Anonymous, доброй ночи, мы не успеваем собрать деньги на оплату серверов за декабрь и январь, помогите нам пожалуйста в это трудное время. В качестве благодарности мы отключим Вам всю рекламу на сайте (укажите свой ник в строку Ваше имя)!

×
  
Magnet ссылка

Посылка / The Package (Джесси Джонсон / Jesse Johnson) [2013, США, Канада, боевик, HDRip, Профессиональный (многоголосый, закадровый) pb.wtf

Посылка через торрент pb.wtf

Размер: 1.45 GB | Добавлен: 7 лет 3 мес. назад | Торрент скачан:2587 раз
Скачать  

12-10-2013 09:57 Посылка Скачать торрент  


Посылка / The Package

«Vengeance delivered»

  • Год выпуска:2013
  • Страна:США, Канада
  • Жанр:боевик

  • Продолжительность: 01:35:24
  • Перевод:Профессиональный (многоголосый, закадровый)[SDI Media по заказу Universal Russia]

  • Субтитры: Нет
    • Режиссер:Джесси Джонсон / Jesse Johnson

  • В ролях:Стив Остин (Tommy Wick), Дольф Лундгрен (The German), Эрик Кинлисайд (Big Doug), Майк Допуд (Julio), Джон Новак (Nicholas), Кристен Керр (Darla), Даррен Шахлави (Devon), Пол Ву (Dosan), Локлин Манро (Eddie), Марк Гиббон (Jake), Питер Брайант (Ralph), Моник Гэндертон (Monique)
    • Описание:
      Курьер Томми должен доставить таинственную посылку местному криминальному авторитету. Задача усложняется по мере того, как о посылке узнают гангстеры. С этого момента начинается смертельная игра, победителем которой суждено стать лишь одному...

    • Качество:HDRip
    • Формат:AVI
    • Видео кодек: XviD
    • Аудио кодек:AC3
    • Видео: XviD, 720x400 (16:9), 1734 kbps, 23,976 fps, 0,251 bpp
    • Аудио №1: AC3 / 2.0 / 48 kHz / 320 kbps / 16 bit-Russian
      Аудио №2: MP3 / 2.0 / 44 kHz / 112 kbps / English

    General
    Complete name : D:ТорентыP0sylka.2013.P.HDRip.avi
    Format : AVI
    Format/Info : Audio Video Interleave
    File size : 1.45 GiB
    Duration : 1h 35mn
    Overall bit rate mode : Variable
    Overall bit rate : 2 176 Kbps

    Writing application : VirtualDubMod 1.5.10.2 (build 2540/release)
    Writing library : VirtualDubMod build 2540/release

    Video
    ID : 0
    Format : MPEG-4 Visual
    Format profile : Advanced Simple@L5
    Format settings, BVOP : 2
    Format settings, QPel : No
    Format settings, GMC : No warppoints
    Format settings, Matrix : Default (H.263)
    Codec ID : XVID
    Codec ID/Hint : XviD
    Duration : 1h 35mn
    Bit rate : 1 735 Kbps
    Width : 720 pixels
    Height : 400 pixels
    Display aspect ratio : 16:9
    Frame rate : 23.976 fps
    Color space : YUV
    Chroma subsampling : 4:2:0
    Bit depth : 8 bits
    Scan type : Progressive
    Compression mode : Lossy
    Bits/(Pixel*Frame) : 0.251
    Stream size : 1.16 GiB (80%)
    Writing library : XviD 73

    Audio #1
    ID : 1
    Format : AC-3
    Format/Info : Audio Coding 3
    Mode extension : CM (complete main)
    Codec ID : 2000
    Duration : 1h 35mn
    Bit rate mode : Constant
    Bit rate : 320 Kbps
    Channel(s) : 2 channels
    Channel positions : Front: L R
    Sampling rate : 48.0 KHz
    Bit depth : 16 bits
    Compression mode : Lossy
    Stream size : 218 MiB (15%)
    Alignment : Split accross interleaves
    Interleave, duration : 42 ms (1.00 video frame)
    Interleave, preload duration : 500 ms

    Audio #2
    ID : 2
    Format : MPEG Audio
    Format version : Version 1
    Format profile : Layer 3
    Mode : Joint stereo
    Mode extension : MS Stereo
    Codec ID : 55
    Codec ID/Hint : MP3
    Duration : 1h 35mn
    Bit rate mode : Variable
    Bit rate : 112 Kbps
    Channel(s) : 2 channels
    Sampling rate : 44.1 KHz
    Compression mode : Lossy
    Stream size : 72.9 MiB (5%)
    Alignment : Split accross interleaves
    Interleave, duration : 42 ms (1.00 video frame)
    Interleave, preload duration : 500 ms
    Writing library : LAME3.99r
    Encoding settings : -m j -V 4 -q 2 -lowpass 15.6 --abr 112

    © Оформление by Vetal
    pb.wtf



  • Скачать Посылка через торрент http://i58.fastpic.ru/big/2013/0922/31/4683bcd4960801b02604b79f43d30631.png Скачать фильм Посылка через торрент бесплантно в хорошем качестве Описание:Курьер Томми должен доставить таинственную посылку местному криминальному авторитету. Задача усложняется по мере того, как о ... 9.6 10 64
    Info! Золотая раздача, скачанное не засчитывается.
    Торрент: Зарегистрирован [2013-10-12 09:57] · скачан: 2 587 раз
    Статус: √ проверено
    Размер: 1.45 GB
    Как cкачать? Как скачать Посылка через торрент | UTorrent

    28-11-2019 20:33  

    Отключить всю рекламу на сайте

    14-10-2013 10:50 Посылка Скачать торрент  

    как фильм?pb.wtf



    15-10-2013 05:17 Посылка Скачать торрент  

    типичный американский боевик 90-х.......pb.wtf



    15-10-2013 09:08 Посылка Скачать торрент  

    Слава богу хоть Лунгрен вырос из роли посыльного pb.wtf



      Дорогой пользователь! Огромная просьба, поблагодарите релизера, оцените раздачу и оставьте свои комментарий, если Вы скачали Посылка через торрент бесплатно! Внесите свою лепту в развитие PiratBit!
      Комментировать посты могут только пользователи прошедшие не сложную регистрацию
      Показать сообщения:    

      Посылка через торрент
      Скачать бесплатно Посылка
      Посылка скачать торрент
      Посылка смотреть онлайн
      Cкачать фильм Посылка бесплатно
      Посылка скачать торрент в хорошем качестве
      Посылка смотреть онлайн бесплатно в хорошем качестве


      Вы не можете начинать темы
      Вы не можете отвечать на сообщения
      Вы не можете редактировать свои сообщения
      Вы не можете удалять свои сообщения
      Вы не можете голосовать в опросах
      Вы не можете прикреплять файлы к сообщениям
      Вы можете скачивать файлы